<?xml version="1.0" standalone="no"?>
<!DOCTYPE svg PUBLIC "-//W3C//DTD SVG 1.1//EN" "http://www.w3.org/Graphics/SVG/1.1/DTD/svg11.dtd" >
<svg xmlns="http://www.w3.org/2000/svg">
<metadata></metadata>
<defs>
<font id="merriweatherheavy" horiz-adv-x="0" >
<font-face units-per-em="2048" ascent="1638" descent="-410" />
<missing-glyph horiz-adv-x="560" />
<glyph />
<glyph />
<glyph unicode="&#xd;" />
<glyph />
<glyph />
<glyph />
<glyph />
<glyph />
<glyph />
<glyph />
<glyph />
<glyph unicode="&#x9;" />
<glyph unicode="&#xa;" />
<glyph />
<glyph />
<glyph />
<glyph />
<glyph />
<glyph />
<glyph />
<glyph />
<glyph />
<glyph />
<glyph />
<glyph />
<glyph />
<glyph />
<glyph />
<glyph />
<glyph />
<glyph />
<glyph />
<glyph />
<glyph unicode=" "  horiz-adv-x="560" />
<glyph unicode="&#x09;" horiz-adv-x="560" />
<glyph unicode="&#xa0;" horiz-adv-x="560" />
<glyph unicode="!" horiz-adv-x="813" d="M167 1780h479l-153 -1212h-182zM179 154q0 93 76 160t162 67q101 0 154 -54.5t53 -139.5q0 -97 -74 -158t-168 -61q-81 0 -142 50.5t-61 135.5z" />
<glyph unicode="&#x22;" horiz-adv-x="1261" d="M174 1782h365l-85 -826h-195zM722 1782h365l-85 -826h-195z" />
<glyph unicode="#" horiz-adv-x="1489" d="M113 345v219h236l25 265h-235v216h249l38 310h246l-27 -310h243l28 310h261l-26 -310h225v-216h-249l-24 -265h235q0 -36 0.5 -109t0.5 -110h-256l-31 -345h-255l27 345h-234l-34 -345h-256l30 345h-217zM609 564h234l23 265h-233z" />
<glyph unicode="$" horiz-adv-x="1366" d="M121 1141q0 92 39 169.5t105 129.5t150.5 84t179.5 40l5 207h214l-5 -211q115 -9 211 -29t122 -36v-331h-164l-94 210q-10 13 -72 30t-119 17q-59 0 -108.5 -13.5t-87 -52t-38.5 -98.5q0 -43 16 -83t40.5 -71t65 -63.5t78.5 -56t92 -53.5q22 -12 67.5 -37t70.5 -38.5 t67 -38.5t66.5 -42t59 -44t55 -50t44 -54t35.5 -61.5t20.5 -67.5t8.5 -76q-1 -183 -142 -306.5t-385 -139.5l-9 -216h-224l9 221q-113 10 -212.5 32.5t-154.5 51.5v405h150l93 -241q48 -63 116 -82.5t166 -19.5q42 0 81.5 11t75.5 34.5t58 69t22 107.5q0 36 -18 70t-44.5 61 t-72 57.5t-84 52t-98.5 53.5q-10 5 -16 8.5t-15 8t-16 8.5q-71 39 -119.5 68.5t-107.5 76t-94 91.5t-59 107t-24 131z" />
<glyph unicode="%" horiz-adv-x="2137" d="M109 1053q0 115 58 201.5t149.5 129t200.5 43.5q95 0 168.5 -28t117.5 -78.5t66 -115.5t22 -143q0 -115 -58 -200.5t-149.5 -127t-200.5 -42.5q-168 -1 -271 104.5t-103 256.5zM361 1061q0 -89 48.5 -157.5t101.5 -68.5q58 0 92.5 59.5t34.5 160.5q0 99 -42 164t-95 65 q-61 0 -100.5 -61t-39.5 -162zM562 -177l722 1947h240l-724 -1947h-238zM1223 525q0 115 58 201.5t149.5 129t200.5 43.5q95 0 168.5 -28t117.5 -78.5t66 -115.5t22 -143q0 -115 -58 -200.5t-149.5 -127.5t-200.5 -42q-168 0 -271 105t-103 256zM1481 533q0 -89 48.5 -157.5 t101.5 -68.5q58 0 92.5 59.5t34.5 160.5q0 99 -42 164t-95 65q-61 0 -100.5 -61t-39.5 -162z" />
<glyph unicode="&#x26;" horiz-adv-x="1592" d="M82 386q0 75 26 135t76.5 104t105 74.5t130.5 61.5q-44 58 -68 92.5t-54.5 88.5t-43.5 106t-12 107q3 96 46 174t112 125.5t150.5 72.5t166.5 25q193 0 322 -94t129 -246q0 -134 -96.5 -254t-259.5 -193q67 -88 164 -200t168 -186l11 -13q7 41 7 141q0 158 -38 231h313 q8 -5 15.5 -19t15 -55.5t7.5 -101.5q0 -88 -36.5 -181.5t-102.5 -166.5q98 -61 184 -61v-140q-74 -39 -220 -29q-124 11 -219 58q-143 -70 -345 -70q-317 0 -485.5 107.5t-168.5 306.5zM427 438q0 -84 28 -145.5t77 -94.5t105 -48t122 -15q103 0 166 12q-85 77 -193.5 206 t-204.5 261q-100 -81 -100 -176zM562 1264q-9 -57 1 -110.5t43 -108t49 -77t58 -70.5q5 -6 7 -9q82 54 110.5 134t28.5 206q0 75 -36.5 130.5t-111.5 55.5q-53 0 -95 -34.5t-54 -116.5z" />
<glyph unicode="'" horiz-adv-x="713" d="M174 1782h365l-85 -826h-195z" />
<glyph unicode="(" horiz-adv-x="1011" d="M160 712q0 135 24.5 263.5t64 227t91 187.5t102.5 152t103 113.5t88 77.5t61 40l143 -112q-21 -15 -44 -35t-56.5 -60t-63.5 -87.5t-62 -120t-55.5 -155.5t-40.5 -196t-21 -239q-5 -164 22.5 -319t71 -265t98 -202t100 -143t80.5 -76l-151 -115q-36 20 -63 37t-89 66 t-109 101t-105.5 141t-97 187.5t-65 237.5t-26.5 294z" />
<glyph unicode=")" horiz-adv-x="1011" d="M145 1648l151 115q36 -20 63 -37t89 -66t109 -101t105.5 -141t97 -187.5t65 -237.5t26.5 -294q0 -135 -24.5 -263.5t-64 -227t-91 -187.5t-102.5 -152t-103 -113.5t-88 -77.5t-61 -40l-143 112q21 15 44 35t56.5 60t63.5 87.5t62 120t55.5 155.5t40.5 196t21 239 q5 164 -22.5 319t-71 265t-98 202t-100 143t-80.5 76z" />
<glyph unicode="*" horiz-adv-x="1240" d="M70 1434l150 226l243 -200l90 -103l-60 133l-21 309l278 -1l-21 -308l-71 -133l95 116l243 184l174 -225l-343 -140l-128 -18l129 -24l337 -168l-174 -198l-238 197l-92 112l60 -125l29 -313h-278l21 313l60 125l-90 -112l-239 -200l-151 203l310 168l128 22l-125 16z " />
<glyph unicode="+" horiz-adv-x="1320" d="M173 712v256h211l155 -10l-10 188v212h262v-212l-10 -188l155 10h211v-256h-211l-155 10l10 -188v-192h-262v192l10 188l-155 -10h-211z" />
<glyph unicode="," horiz-adv-x="797" d="M180 -472q30 13 57 33.5t54.5 52.5t44 79.5t16.5 103.5q0 69 -51 125.5t-120 62.5v81l204 258q131 -47 197.5 -160t64.5 -242q-2 -84 -26 -160t-62.5 -131.5t-89.5 -102t-103.5 -76t-108.5 -48.5l-77 69v55z" />
<glyph unicode="-" horiz-adv-x="1320" d="M183 722v236h954v-236h-954z" />
<glyph unicode="." horiz-adv-x="803" d="M179 157q0 93 76 160t162 67q101 0 154 -54.5t53 -139.5q0 -97 -74 -158t-168 -61q-81 0 -142 50.5t-61 135.5z" />
<glyph unicode="/" horiz-adv-x="827" d="M30 -363l514 1962h253l-515 -1962h-252z" />
<glyph unicode="0" horiz-adv-x="1404" d="M104 632q3 141 56.5 259.5t140.5 195.5t196 120.5t224 44.5q150 1 264 -46.5t182 -135t101 -199.5t32 -248q-1 -141 -51.5 -263t-133.5 -205t-192 -131t-228 -48q-118 0 -217 35t-168 96.5t-116.5 145.5t-69 179.5t-20.5 199.5zM492 651q0 -122 25.5 -239t78.5 -199.5 t120 -84.5q112 -4 153.5 110t41.5 373q0 221 -60.5 353.5t-166.5 135.5q-57 1 -95 -28t-59 -90.5t-29.5 -140t-8.5 -190.5z" />
<glyph unicode="1" horiz-adv-x="995" d="M61 1042q93 25 284 110t231 116l144 -19l-5 -1063l237 -40v-146h-839v146l261 41v725l-277 -32z" />
<glyph unicode="2" horiz-adv-x="1262" d="M79 1034q20 29 65.5 65.5t113.5 74.5t165 63.5t199 25.5q109 0 199.5 -29.5t149 -79t90.5 -112.5t32 -132q0 -59 -14 -113t-37.5 -101.5t-67.5 -98.5t-91 -95t-121.5 -100t-144.5 -104.5t-174 -117.5l526 71l92 118l145 -44l-69 -325h-998l-50 130q120 71 230 156 t202.5 177.5t148 189t55.5 176.5q0 88 -55.5 154t-158.5 66q-75 0 -147 -26t-109 -51t-90 -67z" />
<glyph unicode="3" horiz-adv-x="1115" d="M44 1097q18 19 54.5 44t96 56t146.5 51.5t180 20.5q78 0 149.5 -18.5t132.5 -57t97.5 -106t36.5 -155.5q0 -113 -94 -222.5t-213 -146.5q177 -2 292 -102.5t115 -260.5q0 -119 -65 -227.5t-185.5 -186t-291 -107t-381.5 9.5q0 31 -0.5 88.5t-0.5 88.5q94 -21 179.5 -20.5 t158.5 27t127 70t84.5 107.5t30.5 140q0 244 -243 273l-215 -45v184q37 3 81 15t96 37t94 59t70 87t28 115q0 77 -51 116.5t-115 39.5q-24 0 -46.5 -2t-41 -4.5t-39 -8.5t-33.5 -9.5t-31.5 -12t-27 -12t-26.5 -14t-22.5 -13t-21.5 -13.5t-19 -12z" />
<glyph unicode="4" horiz-adv-x="1308" d="M75 130q461 757 633 1144h99l230 -154l-611 -870l-71 -86l447 47l16 378l276 33v-381l180 19v-260h-180v-376h-315l15 376h-670z" />
<glyph unicode="5" horiz-adv-x="1139" d="M108 -182q90 -7 173 2t158 39t130 77.5t87.5 122t32.5 168.5q0 60 -13 109t-43 91.5t-79.5 65t-122.5 28t-171 -19.5l-131 40l62 696h666l28 37h129l-84 -301h-509l-64 -300q171 47 301 30t217.5 -83.5t132 -158t44.5 -193.5q0 -120 -47.5 -223t-128 -174.5 t-186.5 -122.5t-222.5 -75t-236.5 -24q-77 0 -123 14v155z" />
<glyph unicode="6" horiz-adv-x="1348" d="M114 550q0 158 54 305t144.5 261t208.5 205.5t248 149t260 80.5l78 -148q-89 -23 -180.5 -72.5t-174.5 -124t-147.5 -163.5t-103 -199t-38.5 -222q0 -48 1 -85t6 -92.5t14.5 -96t27 -85.5t41.5 -74t61 -48t84 -19q29 0 57 9.5t57.5 35t51 63.5t35 101t13.5 143 q0 65 -25 128t-77 108t-119 45q-73 0 -126 -28l-47 95q31 52 117 99t201 47q132 0 226.5 -58.5t140 -155.5t45.5 -223q0 -158 -69.5 -283t-204 -198.5t-312.5 -73.5q-125 0 -229.5 46t-173.5 124.5t-107 182.5t-38 221z" />
<glyph unicode="7" horiz-adv-x="1232" d="M118 833l37 420h964l58 -63l-571 -1526l-343 121q316 577 636 1300l-496 -26l-75 -230z" />
<glyph unicode="8" horiz-adv-x="1297" d="M99 373q0 77 33 153.5t109.5 147.5t185.5 108q-122 89 -190.5 182t-68.5 210q0 77 28 142.5t76 111t111.5 77.5t133.5 47t143 15q96 0 180.5 -22t151.5 -65.5t106 -114.5t39 -162q0 -101 -83 -209t-181 -148q75 -51 127 -93t104 -97t78.5 -115t26.5 -125 q0 -91 -31.5 -166t-84 -125t-123.5 -84t-147 -49.5t-157 -15.5q-111 0 -208.5 22t-180 67t-130.5 124t-48 184zM409 456q0 -146 79 -240t194 -94q83 0 143.5 52t60.5 166q0 49 -22.5 93t-77.5 92t-93 75.5t-122 82.5l-18 12q-144 -113 -144 -239zM462 1253q0 -44 21 -85.5 t64 -83.5t86.5 -74.5t109.5 -77.5q114 83 112 250q-1 107 -63 175t-149 68q-68 0 -124.5 -45t-56.5 -127z" />
<glyph unicode="9" horiz-adv-x="1331" d="M90 699q0 158 69.5 283t204 198.5t312.5 73.5q125 0 229.5 -46t173.5 -124.5t107 -182.5t38 -221q0 -197 -75 -387.5t-196.5 -333.5t-277.5 -241.5t-316 -126.5l-78 148q109 28 217 114t191 203.5t134.5 264t51.5 287.5q0 48 -1 85t-6 92.5t-14.5 96t-27 85.5t-41.5 74 t-61 48t-84 19q-29 0 -57 -9.5t-57.5 -35t-51 -63.5t-35 -101t-13.5 -143q0 -65 25 -128t77 -108t119 -45q73 0 126 28l47 -95q-33 -59 -111 -102.5t-207 -43.5q-132 0 -226.5 58.5t-140 155.5t-45.5 223z" />
<glyph unicode=":" horiz-adv-x="803" d="M179 150q0 93 76 160t162 67q101 0 154 -54.5t53 -139.5q0 -97 -74 -158t-168 -61q-81 0 -142 50.5t-61 135.5zM179 888q0 93 76 160t162 67q101 0 154 -54.5t53 -139.5q0 -97 -74 -158t-168 -61q-81 0 -142 50.5t-61 135.5z" />
<glyph unicode=";" horiz-adv-x="828" d="M180 888q0 93 76 160t162 67q101 0 154 -54.5t53 -139.5q0 -97 -74 -158t-168 -61q-81 0 -142 50.5t-61 135.5zM211 -472q30 13 57 33.5t54.5 52.5t44 79.5t16.5 103.5q0 69 -51 125.5t-120 62.5v81l204 258q131 -47 197.5 -160t64.5 -242q-2 -84 -26 -160t-62.5 -131.5 t-89.5 -102t-103.5 -76t-108.5 -48.5l-77 69v55z" />
<glyph unicode="&#x3c;" horiz-adv-x="1335" d="M183 703v134l969 503v-293l-595 -280l595 -246v-304z" />
<glyph unicode="=" horiz-adv-x="1320" d="M183 430v232h954v-232h-954zM183 979v231h954v-231h-954z" />
<glyph unicode="&#x3e;" horiz-adv-x="1335" d="M183 200v293l595 279l-595 247v304l969 -486v-134z" />
<glyph unicode="?" horiz-adv-x="1063" d="M68 1810q13 21 94.5 37.5t155.5 13.5q134 -6 242 -42t177 -91t117 -124.5t69 -141.5t27 -143t-3.5 -129t-28.5 -98q-14 -24 -94.5 -59t-171.5 -78.5t-126 -84.5q-30 -35 10 -151t77 -176h-250q-83 80 -125 164t-42 146q0 58 54.5 104t133.5 74t159 50.5t140.5 46.5 t67.5 49q-4 88 -40.5 159t-86 112.5t-111.5 70t-111 39.5t-91 13q-178 7 -228 -33zM335 154q0 93 76 160t162 67q101 0 154 -54.5t53 -139.5q0 -97 -74 -158t-168 -61q-81 0 -142 50.5t-61 135.5z" />
<glyph unicode="@" horiz-adv-x="2282" d="M140 381q0 140 36.5 271t101.5 237.5t153 199t191.5 160.5t216.5 116.5t228.5 72.5t226.5 24q187 0 336.5 -37.5t246 -99.5t161 -146.5t91.5 -174t27 -186.5q0 -162 -52 -305.5t-139 -244t-201 -162t-236 -69.5q-104 -6 -141.5 48.5t-37.5 160.5q0 36 14 152 q-67 -151 -168.5 -259t-218.5 -114q-59 -3 -119 22.5t-109 71.5t-80 116t-31 150q0 143 44.5 269.5t115.5 211t155 135.5t167 57q84 6 141.5 -6t135.5 -43q27 62 62 53q46 -12 125 -38t113 -36q-7 -44 -25 -143t-30.5 -183.5t-20.5 -169.5q-9 -103 -6.5 -164.5t9 -87 t14.5 -25.5q50 1 111.5 79t105.5 200.5t44 235.5q0 131 -37.5 231.5t-100.5 164t-153.5 104.5t-189 57t-214.5 16q-100 0 -206.5 -36t-207 -107.5t-180 -167.5t-127.5 -227t-48 -274q0 -159 39.5 -283t105.5 -202.5t160 -129t194 -71t216 -20.5q102 0 232.5 27t175.5 54 l65 -128q-75 -54 -208 -85t-303 -31q-294 0 -512.5 89.5t-338.5 261.5t-120 408zM927 502q0 -107 24 -181t74 -74q23 0 67.5 52.5t91.5 132.5t88.5 187.5t56.5 203.5q-21 14 -78 26.5t-89 12.5q-100 0 -167.5 -90t-67.5 -270z" />
<glyph unicode="A" horiz-adv-x="1600" d="M5 0v140l133 40l493 1373h333l479 -1375l152 -40v-138h-684v138l134 45l-43 152h-541l-45 -148l149 -47v-140h-560zM518 521h430l-133 458l-73 274z" />
<glyph unicode="B" horiz-adv-x="1457" d="M80 0v140l155 43v1184l-151 22v164h312q-3 3 41 5t148.5 4.5t159.5 4.5q22 1 44 1q239 0 371 -92q144 -100 145 -279q0 -128 -67 -226t-195 -133q149 0 258.5 -110.5t109.5 -263.5q0 -118 -38 -204.5t-121 -148t-220 -92t-331 -30.5q-53 0 -174.5 5.5t-220.5 5.5h-226z M587 164q52 -27 205 -27q57 0 101.5 20.5t71 52t43.5 74t23.5 82.5t6.5 82q0 56 -12 102.5t-40 87t-81 63.5t-127 23q-131 0 -191 -12v-548zM589 882q24 -8 130 -8q50 0 90 11.5t65 28t43 44.5t27 51t14 57.5t5.5 54t0.5 51.5q0 52 -12 93t-40.5 76t-83 54t-131.5 19 q-76 0 -106 -15z" />
<glyph unicode="C" horiz-adv-x="1475" d="M68 724q0 188 74 349t196.5 267.5t281 166.5t328.5 60q71 0 141 -8t111 -16.5t97.5 -22t74.5 -17.5l-20 -389h-210l-73 205q-21 32 -67 47.5t-149 15.5q-171 0 -280.5 -150.5t-109.5 -415.5q0 -177 46 -327.5t142 -248t225 -97.5q207 0 241 80l82 201h174v-357 q-35 -1 -104.5 -25t-177 -47t-240.5 -23q-187 0 -337.5 58.5t-247 160.5t-147.5 238.5t-51 294.5z" />
<glyph unicode="D" horiz-adv-x="1616" d="M90 0v140l145 40v1188l-141 21v164h328q38 0 159.5 7t191.5 7q161 0 291 -35.5t220 -100.5t150.5 -158t88.5 -205.5t28 -245.5q0 -193 -59 -350.5t-165 -262.5t-254.5 -162t-326.5 -57q-53 0 -167.5 5.5t-150.5 5.5q-56 0 -169 -0.5t-169 -0.5zM593 179q53 -34 158 -34 q36 0 79 4q151 14 248.5 179.5t97.5 419.5q0 329 -106 492t-321 167h-9l-81 -7q-45 -8 -66 -22v-1199z" />
<glyph unicode="E" horiz-adv-x="1426" d="M101 0v140l147 39v1188l-142 22v164h1135l31 -342h-205l-94 160l-370 21v-519l256 10l54 149h181v-488h-181l-54 159l-256 6v-549l439 28l127 198l208 -37l-54 -349h-1222z" />
<glyph unicode="F" horiz-adv-x="1323" d="M80 1389v164h1146l32 -348l-177 -2l-71 153l-420 23v-524l289 12l65 153h150v-511h-166l-45 164l-292 5v-491l321 -28v-159h-827v140l150 33v1196z" />
<glyph unicode="G" horiz-adv-x="1585" d="M65 748q0 253 107.5 440t294 283t426.5 96q176 0 319.5 -19t189.5 -37l-22 -341h-180l-92 179q-6 10 -32.5 23t-82.5 25.5t-121 12.5q-131 0 -227.5 -77.5t-145 -208t-48.5 -296.5q0 -142 21 -262.5t65.5 -220.5t122.5 -157t184 -57q94 0 173 39.5t85 87.5v257l-211 27 v166h618v-166l-94 -23v-465q-23 3 -49 3q-57 0 -130 -14q-107 -20 -232.5 -45.5t-223.5 -25.5q-161 0 -296.5 60.5t-226.5 165t-141.5 246.5t-50.5 304z" />
<glyph unicode="H" horiz-adv-x="1780" d="M59 1389v164h707v-164l-173 -22v-485h595v488l-169 19v164h701v-164l-175 -21v-1187l185 -43v-138h-725v138l183 42v511h-595v-509l184 -42v-140h-712v140l170 42v1184z" />
<glyph unicode="I" horiz-adv-x="848" d="M55 0v140l188 41v1184l-188 24v164h727v-164l-178 -25v-1181l189 -43v-140h-738z" />
<glyph unicode="J" horiz-adv-x="787" d="M-112 -295q108 42 181.5 100t112.5 148q30 83 40 185t10 268v961l-148 22v164h652v-164l-143 -23v-832q0 -189 -15.5 -348t-44.5 -227q-37 -85 -107.5 -154.5t-152.5 -111.5t-163 -64.5t-152 -24.5z" />
<glyph unicode="K" horiz-adv-x="1535" d="M43 1389v164h724v-164l-178 -25v-567l460 569l-159 23l-3 164h619v-164l-187 -26l-431 -474q59 -51 140 -167t146.5 -224.5t134 -204.5t106.5 -116l130 -37v-140h-423q-33 0 -73.5 58.5t-82 148t-83.5 183t-90.5 177.5t-89.5 117l-114 -126v-376l201 -42v-140h-744v140 l189 43v1181z" />
<glyph unicode="L" horiz-adv-x="1293" d="M93 0v140l142 38v1169l-137 21v185h678v-185l-182 -22v-1183l360 39l167 237l152 -56l-69 -383h-1111z" />
<glyph unicode="M" horiz-adv-x="2060" d="M62 0v140l172 42l70 1161l-185 23v187h679l241 -796l33 -202l42 202l226 796h626v-187l-187 -22l104 -1163l157 -43v-138h-663v138l165 45l-56 766l-4 406l-34 -138l-355 -1235h-130l-330 990l-120 375l-4 -278l-30 -884l184 -45v-140h-601z" />
<glyph unicode="N" horiz-adv-x="1706" d="M78 0v140l157 45v1161l-150 22v185h509l602 -1048l88 -236v1073l-180 28v183h544v-183l-137 -22v-1348h-392l-545 917l-109 270q0 -167 0.5 -500.5t0.5 -497.5l203 -49v-140h-591z" />
<glyph unicode="O" horiz-adv-x="1600" d="M66 754q4 147 46.5 277.5t114 227t165.5 167t203 106t223 35.5q214 0 380 -101q164 -100 252 -277q84 -169 84 -380v-19q-5 -247 -103 -434t-262.5 -285.5t-371.5 -98.5q-167 0 -306.5 60.5t-233 165t-143.5 248.5q-48 136 -48 290v18zM459 755q0 -75 11.5 -155.5 t38.5 -165t66 -151t100 -109t135 -42.5q97 0 161.5 40t102 125t53 203t15.5 289q0 82 -11 164.5t-36.5 164t-63 144t-95 101.5t-127.5 39q-98 0 -166 -41.5t-108.5 -126t-58 -201t-17.5 -278.5z" />
<glyph unicode="P" horiz-adv-x="1368" d="M60 0v140l175 43v1163l-172 34v173h358q45 0 156 7t187 7q103 0 186.5 -11.5t163 -42t133 -80.5t86 -131t32.5 -189q0 -162 -80.5 -279.5t-214.5 -174.5t-307 -57q-135 0 -176 2v-422l245 -42v-140h-772zM587 783q50 -11 169 -11q116 0 187.5 84.5t71.5 273.5 q0 136 -81 204t-214 70q-102 0 -133 -13v-608z" />
<glyph unicode="Q" horiz-adv-x="1600" d="M66 754q4 147 46.5 277.5t114 227t165.5 167t203 106t223 35.5q214 0 379.5 -100.5t252.5 -277.5q84 -169 84 -380v-19q-7 -312 -156.5 -522t-392.5 -272q15 -35 39 -60.5t54 -38.5t56.5 -21t62 -7.5t53.5 1t48 4.5l30 4q45 6 156 40v-220q-93 -89 -296 -89 q-59 0 -111 15.5t-105 53.5t-93.5 113t-61.5 182q-4 0 -10.5 -0.5t-9.5 -0.5q-167 0 -306.5 60.5t-233 165t-143.5 248.5q-48 136 -48 290v18zM459 755q0 -75 11.5 -155.5t38.5 -165t66 -151t100 -109t135 -42.5q97 0 161.5 40t102 125t53 203t15.5 289q0 82 -11 164.5 t-36.5 164t-63 144t-95 101.5t-127.5 39q-98 0 -166 -41.5t-108.5 -126t-58 -201t-17.5 -278.5z" />
<glyph unicode="R" horiz-adv-x="1525" d="M61 0v140l174 43v1173l-155 24v173h225q105 0 260 7t195 7q132 0 239 -22.5t190.5 -70t129 -127t45.5 -186.5q0 -356 -338 -470q56 -30 113.5 -109t97.5 -157.5t88.5 -152t89.5 -95.5l130 -37v-140h-423q-36 0 -76 66.5t-77.5 161t-76.5 189.5t-87 161.5t-95 66.5 q-22 -1 -62 -1h-59v-466l191 -38v-140h-719zM589 809q58 -9 115 -9q47 0 94 6q223 32 223 318q0 52 -16 99t-50.5 89t-97.5 66.5t-147 24.5q-97 0 -121 -12v-582z" />
<glyph unicode="S" horiz-adv-x="1316" d="M131 1141q0 100 45.5 182t121.5 134.5t171.5 81t198.5 28.5q151 0 299.5 -24.5t184.5 -47.5v-331h-164l-94 210q-10 13 -72 30t-119 17q-59 0 -108.5 -13.5t-87 -52t-38.5 -98.5q0 -43 16 -83t40.5 -71t65 -63.5t78.5 -56t92 -53.5q22 -12 67.5 -37t70.5 -38.5t67 -38.5 t66.5 -42t59 -44t55 -50t44 -54t35.5 -61.5t20.5 -67.5t8.5 -76q-1 -196 -161.5 -322.5t-433.5 -126.5q-143 0 -295.5 26t-227.5 66v405h150l93 -241q48 -63 116 -82.5t166 -19.5q42 0 81.5 11t75.5 34.5t58 69t22 107.5q0 36 -18 70t-44.5 61t-72 57.5t-84 52t-98.5 53.5 q-10 5 -16 8.5t-15 8t-16 8.5q-71 39 -119.5 68.5t-107.5 76t-94 91.5t-59 107t-24 131z" />
<glyph unicode="T" horiz-adv-x="1456" d="M47 1134l24 419h1339l-2 -407l-141 -17l-77 229l-265 27v-1205l225 -40v-140h-809v140l230 39v1206l-274 -27l-69 -215z" />
<glyph unicode="U" horiz-adv-x="1611" d="M40 1389v164h682v-164l-169 -23v-756q0 -117 21 -203t53 -134t80 -77t91.5 -37.5t98.5 -8.5q73 0 128 24.5t100 81.5t69 160q23 99 22 238v12l-3 697l-168 26v164h539v-164l-144 -26v-696q0 -159 -32 -282t-86 -199.5t-131 -125.5t-159 -68.5t-179 -19.5q-337 0 -499 161 q-161 159 -160 484v8l4 740z" />
<glyph unicode="V" horiz-adv-x="1493" d="M13 1389v164h667v-161l-163 -25l216 -754l64 -269l61 263l204 759l-154 23v163h572v-163l-121 -19l-452 -1385h-274l-502 1385z" />
<glyph unicode="W" horiz-adv-x="2281" d="M15 1388v165h625v-163l-119 -21l234 -925q18 -94 34 -168l33 168l190 766l-40 159l-130 19v165h646v-163l-162 -23l204 -923l36 -172l42 172l223 924l-150 20v165h585v-165l-151 -19l-416 -1385h-341l-229 807l-222 -806h-320l-448 1384z" />
<glyph unicode="X" horiz-adv-x="1553" d="M24 0v138l176 44l411 566l-426 617l-161 24v164h707v-161l-146 -23l214 -394l243 394l-136 20v164h623v-164l-192 -22l-421 -548l449 -635l165 -46v-138h-703v137l143 40l-231 399l-234 -393l188 -45v-138h-669z" />
<glyph unicode="Y" horiz-adv-x="1480" d="M13 1389v164h630v-161l-106 -20l252 -531l29 -94l33 103l213 514l-159 25q0 27 -0.5 82t-0.5 82h563v-164l-132 -37l-390 -809v-355l269 -48v-140h-865v140l240 45v326l-466 859z" />
<glyph unicode="Z" horiz-adv-x="1388" d="M52 139l739 1072l166 182l-574 -47l-128 -245l-153 30l43 422h1150l46 -153l-727 -1070l-145 -166l557 46l199 267l149 -41l-110 -436h-1171z" />
<glyph unicode="[" horiz-adv-x="1118" d="M259 111v1401q0 88 19.5 146t61.5 89.5t96.5 44t135.5 12.5q107 0 310 -77q0 -20 -0.5 -61.5t-0.5 -62.5h-308v-1632l308 -4l4 -125q-49 -28 -146 -50t-166 -22q-67 0 -112 7t-86.5 27.5t-65 58t-37 99t-13.5 149.5z" />
<glyph unicode="\" horiz-adv-x="827" d="M30 1599h253l514 -1962h-252z" />
<glyph unicode="]" horiz-adv-x="1118" d="M227 -158l4 125l308 4v1632h-308q0 21 -0.5 62.5t-0.5 61.5q203 77 310 77q81 0 135.5 -12.5t96.5 -44t61.5 -89.5t19.5 -146v-1401q0 -88 -13.5 -149.5t-37 -99t-65 -58t-86.5 -27.5t-112 -7q-69 0 -166 22t-146 50z" />
<glyph unicode="^" horiz-adv-x="1501" d="M183 564l402 967h341l392 -967q-53 0 -159.5 -0.5t-159.5 -0.5l-264 657l-276 -657q-46 0 -138 0.5t-138 0.5z" />
<glyph unicode="_" horiz-adv-x="1421" d="M-20 -193h1455v-234h-1455v234z" />
<glyph unicode="`" horiz-adv-x="884" d="M233 1657l255 195l315 -426l-88 -89q-58 -2 -128.5 27t-135.5 76.5t-122 104t-96 112.5z" />
<glyph unicode="a" horiz-adv-x="1226" d="M60 266v17q0 54 11 111q20 83 96.5 146t178.5 96.5t198.5 49.5t179.5 16q0 78 -13.5 129.5t-42.5 79.5t-66 38.5t-91 10.5q-112 0 -203.5 -30t-127.5 -56l-68 154q46 39 183 81t323 42q107 0 186.5 -19t143.5 -64t97 -127t33 -201v-604h131v-107q-82 -57 -259 -57 q-24 0 -50 4.5t-56.5 15.5t-51 35.5t-22.5 58.5q-121 -114 -290 -114q-102 0 -181.5 23t-128 63t-78.5 93t-32 115zM417 335q0 -97 55 -140q41 -32 110 -32q24 0 51 4q47 7 90 39q0 57 0.5 171.5t0.5 171.5q-53 0 -101.5 -9.5t-97.5 -31t-78.5 -66.5t-29.5 -107z" />
<glyph unicode="b" horiz-adv-x="1327" d="M24 1441v140l422 48l57 -17v-524q114 63 263 63q97 0 181 -30t154.5 -92.5t111.5 -171t41 -252.5q0 -97 -28.5 -190.5t-84 -173t-130.5 -140t-175.5 -95t-212.5 -34.5q-147 0 -298 29.5t-176 54.5v1328zM503 201q44 -84 156 -84q224 0 238 450v23q0 88 -20 160 q-23 82 -63.5 129.5t-88 72t-96.5 24.5q-69 0 -126 -19v-756z" />
<glyph unicode="c" horiz-adv-x="1134" d="M74 529q0 185 82 326q84 142 223.5 216t315.5 80h35q88 0 180 -12q110 -15 154 -40v-317h-183l-79 188q-42 25 -132 25q-102 0 -162.5 -98t-66.5 -273q-1 -16 -1 -32q0 -98 22 -174q25 -90 71.5 -143t105.5 -79.5t128 -26.5q87 0 164.5 21t116.5 50l53 -125 q-167 -143 -472 -143q-261 0 -407 153q-148 155 -148 404z" />
<glyph unicode="d" horiz-adv-x="1383" d="M73 541q0 175 88 315.5t236.5 217.5t326.5 77q70 0 120 -8v241l-221 57v140l510 49l65 -27v-1467h142v-107q-103 -57 -304 -57q-126 0 -166 72q-103 -72 -321 -72q-65 0 -130 19.5t-128 64t-111 109t-77.5 162t-29.5 214.5zM442 617v-26q0 -175 50 -288q54 -121 145 -156 q33 -13 70 -13q85 0 137 19v827q-54 35 -151 35q-23 0 -50 -7.5t-63.5 -33.5t-65 -66.5t-50 -116.5t-22.5 -174z" />
<glyph unicode="e" horiz-adv-x="1239" d="M73 531q0 128 42.5 241t120 197t194 133t257.5 49q232 0 345.5 -112t120.5 -306v-26q0 -76 -14 -177h-697q27 -357 317 -357q168 0 319 67l53 -125q-78 -65 -213 -105q-126 -38 -258 -38h-20q-272 5 -419.5 150.5t-147.5 408.5zM443 691h366q6 75 6 124q0 35 -3 57 q-11 79 -59 113q-37 26 -98 26q-56 0 -97 -27.5t-64 -75.5t-35 -101t-16 -116z" />
<glyph unicode="f" horiz-adv-x="946" d="M51 913v105l183 79v105q0 89 36.5 182t99.5 171.5t158 128.5t202 50q140 0 215 -32v-260q-144 55 -224 55q-38 0 -59 -5t-40 -23.5t-26.5 -57t-7.5 -103.5v-189h300v-206h-300v-748l240 -29v-136h-756v136l162 30v747h-183z" />
<glyph unicode="g" horiz-adv-x="1276" d="M68 753q0 82 31 149t82.5 112t121 76t145.5 45.5t157 15.5h14q230 0 352 -94q46 93 223 93h88v-240h-207q18 -55 18 -124q0 -196 -141 -297.5t-374 -101.5q-96 0 -176 15q-16 -38 -16 -73q0 -113 143 -113h234q264 0 373.5 -75t109.5 -252q0 -180 -175 -300t-489 -120 q-243 0 -378 72.5t-135 223.5q0 92 49.5 160t119.5 110q-70 27 -91 72t-21 117q0 46 41 112t95 111q-194 92 -194 306zM368 -138q0 -113 77 -173.5t204 -60.5q143 0 208 38t65 144q0 23 -0.5 33t-2.5 31.5t-8 33t-16 28.5t-27 26.5t-40 19.5t-56 14t-75 4h-177q-74 0 -122 4 q-30 -56 -30 -142zM414 830q0 -62 8.5 -109.5t28.5 -88.5t58 -63t93 -22q86 0 125.5 65.5t39.5 161.5q0 114 -47 175.5t-136 61.5q-69 0 -119.5 -44.5t-50.5 -136.5z" />
<glyph unicode="h" horiz-adv-x="1425" d="M60 0v136l143 28v1220l-135 57v140l431 49l58 -18v-492l-21 -103q147 134 371 134q85 0 145.5 -24.5t97 -66t57.5 -110t27 -144.5q6 -65 6 -152v-27v-464l136 -27v-136l-635 2v134l145 28v414q0 52 -1 85t-5 74.5t-11.5 67t-21 52.5t-33 41.5t-48 24t-65.5 9.5 q-88 0 -144 -46v-724l98 -26v-136h-595z" />
<glyph unicode="i" horiz-adv-x="748" d="M79 0v136l135 28v622l-128 144v93l396 128l85 -25v-964l144 -26v-136h-632zM153 1513q0 93 76.5 158.5t168.5 65.5q102 0 153.5 -53t51.5 -136q0 -98 -73.5 -160.5t-170.5 -62.5q-83 0 -144.5 52t-61.5 136z" />
<glyph unicode="j" horiz-adv-x="684" d="M-40 -318q36 -11 121 -11q37 0 59.5 18.5t34 63.5t14.5 97t3 144v792l-110 147v88l383 130l81 -27v-1172q0 -233 -100.5 -363.5t-278.5 -130.5q-62 0 -129 13.5t-78 22.5v188zM114 1513q0 92 76.5 158t167.5 66q102 0 154 -53t52 -136q0 -98 -73.5 -160.5t-171.5 -62.5 q-83 0 -144 52t-61 136z" />
<glyph unicode="k" horiz-adv-x="1358" d="M42 1423v142l454 66l61 -28v-892l-13 -141l326 349l-183 21v179h638v-179l-202 -19l-242 -230l341 -533l103 -20v-138h-591v138l83 27l-168 315l-102 -117l9 -83v-118l117 -26v-136h-604v136l134 30v1186z" />
<glyph unicode="l" horiz-adv-x="735" d="M53 1441v140l431 49l58 -18v-1446l175 -30v-136h-647v136l118 25v1223z" />
<glyph unicode="m" horiz-adv-x="2168" d="M86 915v126l372 110l74 -19v-148q65 68 164.5 116t200.5 54q20 1 38 1q230 0 302 -160q170 156 370 156q375 0 375 -477v-511l140 -27v-136h-611v136l117 28v465q0 77 -8 129t-22 85t-40.5 50.5t-57.5 24t-79 6.5q-69 0 -145 -51q10 -47 10 -169v-541l142 -27v-136h-638 v136l142 29v471q0 95 -14 154.5t-45 89.5t-70 38q-25 5 -57 6q-19 0 -41 -2q-29 -3 -71.5 -18t-57.5 -32v-708l131 -28v-136h-609v136l124 25v658z" />
<glyph unicode="n" horiz-adv-x="1466" d="M86 915v126l371 110l75 -19v-148q79 76 192 121.5t227 45.5q183 -1 255.5 -112.5t72.5 -338.5v-538l141 -26v-136h-638v136l143 28v491q0 163 -36.5 214t-160.5 51q-25 0 -77.5 -13.5t-74.5 -32.5v-711l123 -27v-136h-602v136l125 25v658z" />
<glyph unicode="o" horiz-adv-x="1335" d="M74 561q2 148 53 263.5t137.5 185t193 105t228.5 37.5h11q264 0 413 -142q152 -144 152 -419q0 -153 -49.5 -273t-134.5 -193t-191.5 -111t-228.5 -38q-125 0 -224.5 30t-166.5 83t-111 127q-45 74 -64 160q-18 81 -18 175v10zM450 589q0 -57 5.5 -114.5t20.5 -123 t38.5 -115t63.5 -82t91 -32.5q54 0 94 27.5t63 70t37 105t18.5 121t4.5 128.5q0 432 -209 432q-67 0 -113.5 -36.5t-70 -100t-33.5 -131.5t-10 -149z" />
<glyph unicode="p" horiz-adv-x="1349" d="M57 915v126l371 110l70 -18v-129q6 14 30 36t63.5 48t101.5 44.5t129 18.5q75 0 139.5 -17t123.5 -58t100.5 -103.5t66 -159t24.5 -218.5q0 -166 -81 -307.5t-226 -226.5t-319 -85q-38 0 -118 12l13 -165v-167l213 -29v-138h-697v138l132 29v1163zM544 221 q15 -32 65.5 -51t104.5 -19q27 0 54.5 10t56.5 37.5t51 69.5t36.5 112t14.5 159q0 101 -16.5 179.5t-42 124t-60 75t-66 40t-64.5 10.5q-76 0 -134 -68v-679z" />
<glyph unicode="q" horiz-adv-x="1336" d="M73 552q0 124 49 234.5t135 190.5t210.5 127t267.5 47q65 0 146 -15.5t127 -47.5l138 63l52 -23v-1483l132 -24v-132h-677v132l191 23v309l13 123q-100 -100 -275 -100q-49 0 -94.5 6t-97.5 23t-96.5 43.5t-86 71.5t-70.5 103.5t-46.5 142.5t-17.5 186zM442 603v-29 q0 -176 58 -282q62 -115 196 -115q96 0 148 41v726q-11 23 -45 39.5t-72 16.5q-82 0 -138 -28t-86.5 -83t-44.5 -123t-16 -163z" />
<glyph unicode="r" horiz-adv-x="966" d="M85 915v126l371 110l72 -18v-196q16 62 71 113.5t113.5 76t103.5 24.5q82 0 108 -12v-316q-23 21 -77 34.5t-94 13.5q-118 0 -178 -38v-663l233 -34v-136h-710v136l123 25v658z" />
<glyph unicode="s" horiz-adv-x="1095" d="M81 830q1 68 33 124t82 91t114.5 59t126.5 34.5t123 12.5h22q97 1 198 -15q112 -18 178 -43v-273h-176l-56 124q-67 79 -148 79q-61 0 -104 -23t-43 -69q0 -114 182 -198q19 -9 58 -26t60 -27t57 -28t56.5 -30.5t50.5 -33t47 -38.5t37 -43t31 -50t18 -56t7 -65 q0 -96 -42 -167t-117.5 -112.5t-168.5 -61t-206 -19.5q-105 0 -215.5 23t-186.5 67v263h165l63 -109l15 -16q15 -16 20 -20.5t21 -18.5t27.5 -20t29 -15.5t36.5 -13.5t39 -5h18q75 0 117 30q47 33 47 92q-1 21 -17 45q-16 22 -35.5 38.5t-59.5 38.5t-67.5 35t-80.5 37 q-63 29 -110.5 55.5t-96.5 63.5t-80 77q-30 40 -50 93q-19 50 -19 108v6z" />
<glyph unicode="t" horiz-adv-x="924" d="M29 940v113q124 20 183 73q68 61 129 260h168v-267h342v-179h-326v-365q0 -179 12 -263t35.5 -109t75.5 -25q44 0 96.5 9.5t77.5 25.5l52 -113q-49 -52 -161.5 -88t-242.5 -36q-86 0 -142.5 21t-89 68.5t-45 113.5t-12.5 166v595h-152z" />
<glyph unicode="u" horiz-adv-x="1331" d="M53 938v122l382 91l53 -17v-696q0 -143 32 -207t121 -64q52 0 103 15t75 38v631l-127 71v138l418 91l56 -17v-998h114v-107q-32 -24 -115.5 -40.5t-167.5 -16.5q-64 0 -103.5 26.5t-39.5 83.5v38q-54 -65 -153.5 -106.5t-176.5 -41.5q-206 0 -291.5 98t-85.5 321v477z " />
<glyph unicode="v" horiz-adv-x="1285" d="M4 943v176h577v-178l-89 -29l163 -473l54 -189l43 192l146 471l-121 27v179h502v-178l-115 -36l-371 -910h-289l-397 921z" />
<glyph unicode="w" horiz-adv-x="1842" d="M3 940v179h568v-179l-98 -27l114 -464l34 -158l23 128l190 700h291l179 -700l31 -141l29 141l109 491l-133 30v179h499v-178l-140 -34l-257 -912h-334l-154 512l-54 215l-38 -215l-138 -512h-321l-284 918z" />
<glyph unicode="x" horiz-adv-x="1298" d="M0 0v136l164 33l309 366l-336 380l-129 25v179h628v-179l-93 -25l37 -54l122 -163l26 42l141 181l-127 19v179h555v-179l-185 -30l-293 -319l351 -424l128 -31v-136h-618v136l84 29l-60 80l-121 159l-14 -35l-132 -197l144 -36v-136h-581z" />
<glyph unicode="y" horiz-adv-x="1233" d="M5 940v179h585v-179l-114 -25l197 -534l16 -103l29 103l163 536l-137 23v179h508v-179l-100 -21q-129 -326 -222 -556.5t-126 -311t-43 -107.5q-47 -124 -90 -208.5t-97 -150t-120 -96.5t-148 -31q-46 0 -91 3q-51 3 -70 12l2 266q78 -16 136 -16h12q182 6 247 277h-56 l-394 914z" />
<glyph unicode="z" horiz-adv-x="1151" d="M52 100l115 184l437 594l85 90l-345 -20l-66 -202h-182v373h957l51 -124l-476 -692l-123 -152l363 35l60 172h185l-16 -358h-999z" />
<glyph unicode="{" horiz-adv-x="1133" d="M82 673v221q88 10 132.5 32t44.5 73v559q0 71 21 121.5t60 77.5t86.5 38.5t108.5 11.5q26 0 59 -4.5t58 -9t66.5 -15t57.5 -15t59 -17t46 -13.5q0 -21 -0.5 -63t-0.5 -63h-307v-636q0 -66 -42 -106q-11 -11 -24 -20t-35 -19.5t-31.5 -15t-42 -18t-39.5 -16.5 q46 -18 67.5 -27t51 -26t47.5 -34q48 -45 48 -114v-634h307q0 -21 0.5 -64t0.5 -64q-14 -4 -69.5 -20.5t-88 -25.5t-82 -17.5t-87.5 -8.5q-50 0 -90 6t-80 23.5t-66 46.5t-42.5 78t-16.5 115v549q0 47 -51.5 77.5t-125.5 36.5z" />
<glyph unicode="|" horiz-adv-x="1088" d="M367 -186v1966h354v-1966h-354z" />
<glyph unicode="}" horiz-adv-x="1133" d="M246 -187q0 21 0.5 64t0.5 64h307v634q0 69 48 114q18 17 48 34t49.5 25.5t67.5 27.5q-9 4 -39.5 16.5t-41.5 17.5t-31.5 15.5t-34 19.5t-24.5 20q-42 40 -42 106v636h-307q0 21 -0.5 63t-0.5 63q3 1 46 13.5t59 17t57.5 15t66.5 15t58 9t59 4.5q61 0 108.5 -11.5 t86.5 -38.5t60 -77.5t21 -121.5v-559q0 -51 44.5 -73t132.5 -32v-221q-74 -6 -125.5 -36.5t-51.5 -77.5v-549q0 -66 -16.5 -115t-42.5 -78t-66 -46.5t-80 -23.5t-90 -6q-38 0 -87.5 8.5t-82 17.5t-88 25.5t-69.5 20.5z" />
<glyph unicode="~" horiz-adv-x="1317" d="M146 852q5 29 37 70.5t78 80.5t108.5 66.5t121.5 27.5q58 0 109.5 -22t83.5 -48t77.5 -48t92.5 -22q107 0 218 100l99 -126q-5 -32 -35 -74.5t-75 -81t-108 -65t-124 -26.5q-48 0 -89 14.5t-71 35.5t-59.5 42t-67.5 35.5t-82 14.5q-102 0 -216 -100z" />
<glyph />
<glyph unicode="&#xa1;" horiz-adv-x="813" d="M167 -445l153 1270h182l144 -1270h-479zM200 1213q0 93 76 160t162 67q101 0 154 -54.5t53 -139.5q0 -97 -74 -158t-168 -61q-81 0 -142 50.5t-61 135.5z" />
<glyph unicode="&#xa2;" horiz-adv-x="1214" d="M94 525q-1 260 150 423.5t392 195.5l13 218h193l-12 -213q188 -12 254 -50v-317h-183l-79 188q-42 25 -132 25q-102 0 -162.5 -98t-66.5 -273q-4 -117 21 -206.5t71.5 -142.5t105.5 -79.5t128 -26.5q87 0 164.5 21t116.5 50l53 -125q-149 -127 -415 -141l-10 -191h-195 l12 202q-200 37 -309 182.5t-110 357.5z" />
<glyph unicode="&#xa3;" horiz-adv-x="1548" d="M3 71q0 65 85 116t238 51q16 40 22 83.5t6 128.5v241h-158v199h158v49q0 118 38.5 229.5t109.5 201t182 144t245 54.5q197 0 325 -107l-157 -284q-8 23 -31 57.5t-58 74t-85 67t-101 27.5q-46 0 -70 -38t-33 -123t-9 -250v-102h251v-199h-251v-56q0 -157 -27 -256.5 t-96 -173.5q38 -4 123.5 -27t168.5 -26q95 -4 161 43.5t66 103.5q0 33 -20 63.5t-38.5 45t-37.5 25.5l136 267q107 -18 184.5 -115t77.5 -220q0 -45 -12 -94t-45 -106t-84 -101t-139 -73.5t-199 -29.5q-91 0 -173.5 19t-130.5 42t-97.5 40.5t-83.5 14.5q-43 -47 -112 -75.5 t-156 -30.5q-74 -2 -123.5 24.5t-49.5 75.5z" />
<glyph unicode="&#xa4;" horiz-adv-x="1491" d="M150 254l214 215q-59 99 -59 219t62 223l-211 215l156 160l218 -221l-1 -1q96 52 206 52q108 0 208 -53l240 234l158 -161l-235 -230q60 -99 60 -218q0 -117 -56 -213l216 -218l-158 -158l-218 218q-98 -56 -215 -56q-112 0 -209 53l-217 -217zM553 688q0 -74 55 -132 t129 -58t127 57.5t53 132.5t-53 132t-127 57t-129 -57t-55 -132z" />
<glyph unicode="&#xa5;" horiz-adv-x="1526" d="M28 1389v164h630v-161l-106 -20l167 -359l57 -134h14l65 143q14 31 150 343l-155 24l-1 164h563v-164l-140 -40l-254 -470h278v-168h-369l-6 -11v-183h375v-167h-375v-163l258 -47v-140h-854v140l240 45v165h-360v167h360v137l-34 57h-326v168h227l-288 490z" />
<glyph unicode="&#xa6;" horiz-adv-x="1088" d="M367 -185v873h354v-873h-354zM367 907v873h354v-873h-354z" />
<glyph unicode="&#xa7;" horiz-adv-x="1353" d="M132 756q0 82 49.5 176.5t123.5 150.5q-147 115 -147 266q0 98 48 179.5t127 134t177 81t202 28.5q126 0 230 -20t155 -49v-307h-142l-122 171q-40 50 -148 50q-23 0 -48 -7t-50.5 -22.5t-45.5 -38t-33 -56t-13 -73.5q0 -54 38 -97.5t99.5 -75.5t136 -64t149 -71 t136 -87.5t100 -123t37.5 -168.5q-1 -92 -36.5 -176.5t-95.5 -141.5q161 -113 161 -264q0 -94 -30 -167t-80 -119.5t-121.5 -76t-149 -41.5t-169.5 -12q-150 0 -293 24.5t-192 52.5v401h143l97 -206q51 -103 227 -103q99 0 161.5 36t62.5 112q0 58 -41 106t-106.5 84 t-145 71t-159 76t-145 89t-106.5 119.5t-41 158.5zM426 827q0 -35 20 -67.5t47.5 -56t79 -51.5t90.5 -45t107.5 -46.5t106.5 -46.5q35 72 35 120q0 38 -20 74t-47 62t-77.5 57t-89 50.5t-105.5 52t-103 51.5q-44 -71 -44 -154z" />
<glyph unicode="&#xa8;" horiz-adv-x="1062" d="M76 1486q0 70 62.5 117t142.5 47q93 0 138.5 -38.5t45.5 -101.5q0 -72 -63 -117t-149 -45q-75 0 -126 37t-51 101zM600 1489q0 67 64 114t143 47q92 0 135 -37.5t43 -100.5q0 -73 -60 -118t-144 -45q-74 0 -127.5 38t-53.5 102z" />
<glyph unicode="&#xa9;" horiz-adv-x="2112" d="M183 1069q0 179 68.5 337.5t185 271t278 177.5t341.5 65q179 0 339.5 -63.5t278 -175t186.5 -270.5t69 -342q0 -171 -69 -328.5t-186 -271.5t-278.5 -182t-339.5 -68q-190 0 -353.5 64.5t-277 177.5t-178 270t-64.5 338zM369 1069q0 -193 94 -353.5t251 -251t341 -90.5 q140 0 266.5 53.5t219 145.5t147 221.5t54.5 274.5q0 146 -54.5 276t-147 221.5t-219 145t-266.5 53.5q-141 0 -267.5 -53t-218.5 -145t-146 -222t-54 -276zM580 1061q0 147 69 267t195.5 190.5t285.5 70.5q103 0 161 -12.5t104 -37.5v-306h-190l-68 154q-17 16 -78 18 q-75 1 -110 -69t-34 -210q1 -149 72 -229t167 -80q138 0 218 42l43 -127q-47 -63 -153.5 -104.5t-205.5 -41.5q-229 0 -352.5 130.5t-123.5 344.5z" />
<glyph unicode="&#xaa;" horiz-adv-x="1169" d="M165 986q0 68 40.5 122.5t100 85.5t134 51.5t134.5 27.5t110 7v18q0 74 -43.5 97.5t-133.5 23.5q-68 0 -134.5 -16.5t-95.5 -36.5l-52 149q39 24 151.5 50.5t237.5 26.5q65 0 114 -5.5t101.5 -24t86.5 -50t55.5 -86.5t21.5 -130l-2 -410h83v-106q-7 -2 -50.5 -13 t-69 -16.5t-65.5 -11.5t-70 -6q-48 0 -77.5 16t-41.5 62q-93 -78 -265 -78q-108 0 -189 67.5t-81 185.5zM459 1014q0 -34 20 -65.5t60 -44.5q51 -16 146 10l-3 15l1 235q-38 -5 -72.5 -14t-71 -25.5t-58.5 -45t-22 -65.5z" />
<glyph unicode="&#xab;" horiz-adv-x="2155" d="M229 452v305l739 387l86 -136l-456 -394l456 -376l-86 -148zM1101 452v305l739 387l86 -136l-456 -394l456 -376l-86 -148z" />
<glyph unicode="&#xac;" horiz-adv-x="1392" d="M183 745v213h1026v-591h-314v378h-712z" />
<glyph unicode="&#xad;" horiz-adv-x="1320" d="M183 722v236h954v-236h-954z" />
<glyph unicode="&#xae;" horiz-adv-x="2112" d="M183 1069q0 179 68.5 337.5t185 271t278 177.5t341.5 65q179 0 339.5 -63.5t278 -175t186.5 -270.5t69 -342q0 -171 -69 -328.5t-186 -271.5t-278.5 -182t-339.5 -68q-190 0 -353.5 64.5t-277 177.5t-178 270t-64.5 338zM369 1069q0 -193 94 -353.5t251 -251t341 -90.5 q140 0 266.5 53.5t219 145.5t147 221.5t54.5 274.5q0 146 -54.5 276t-147 221.5t-219 145t-266.5 53.5q-141 0 -267.5 -53t-218.5 -145t-146 -222t-54 -276zM599 613v121l78 38v641l-78 27v135h222q31 -1 133 1.5t148 2.5q199 0 299 -61.5t103 -195.5q0 -51 -15 -99.5 t-45 -91.5t-81 -69t-117 -26q55 -2 95 -32.5t63.5 -73t43.5 -84.5t46 -71.5t60 -29.5v-129h-298q-27 0 -47 32.5t-35.5 82t-34.5 100.5t-55 94.5t-86 57.5v-227l71 -22v-121h-470zM998 1139q23 -7 72 -7q44 -1 77.5 34.5t33.5 113.5q0 82 -35 110.5t-132 28.5q-13 -2 -16 -8 v-272z" />
<glyph unicode="&#xaf;" horiz-adv-x="1082" d="M258 1343v241h566v-241h-566z" />
<glyph unicode="&#xb0;" horiz-adv-x="911" d="M98 1244q0 144 105 247t252 103t252.5 -104.5t105.5 -245.5q0 -144 -105 -247.5t-253 -103.5q-147 0 -252 103.5t-105 247.5zM293 1244q0 -74 45 -121.5t116 -47.5q69 0 115 48t46 121q0 70 -46.5 121t-114.5 51q-71 0 -116 -48.5t-45 -123.5z" />
<glyph unicode="&#xb1;" horiz-adv-x="1328" d="M181 712v256h211l155 -10l-10 188v212h262v-212l-10 -188l155 10h211v-256h-211l-155 10l10 -188v-192h-262v192l10 188l-155 -10h-211zM183 0v236h954v-236h-954z" />
<glyph unicode="&#xb2;" horiz-adv-x="1238" d="M139 876q48 27 80.5 45.5t103 61.5t120.5 78t111.5 84t98 90t58.5 86.5t14 82.5q-11 49 -54 82.5t-122 33.5q-45 0 -91 -16t-88 -45t-68.5 -51.5t-59.5 -53.5l-83 118q52 91 186 174.5t273 83.5q209 0 319 -76t110 -217t-148 -271q-94 -82 -331 -223q-20 -12 -62 -36 q-46 -28 -70 -42l479 86l100 149l163 -44l-68 -336h-908z" />
<glyph unicode="&#xb3;" horiz-adv-x="1137" d="M159 1585q58 55 189.5 97.5t253.5 40.5q82 -2 148.5 -20t106.5 -44.5t67 -59.5t37 -61.5t10 -54.5q0 -85 -43.5 -145.5t-152.5 -109.5q64 -8 113.5 -35t75 -58t41 -67t19.5 -57t4 -34q0 -54 -18 -105t-58 -97.5t-97.5 -81.5t-142.5 -56t-187 -21q-164 0 -327 40v147 q46 -12 111.5 -19t106.5 -4q125 8 198.5 45t87.5 99q3 14 4.5 29.5t-2.5 42.5t-16 49.5t-41.5 45t-73.5 34.5l-230 -56l3 163q279 84 317 179q9 23 5 67q-1 21 -17.5 36.5t-40.5 23.5t-45.5 11.5t-41.5 3.5q-58 2 -139 -21t-154 -67z" />
<glyph unicode="&#xb4;" horiz-adv-x="887" d="M366 1425l315 426l255 -195q-68 -105 -203.5 -190t-278.5 -130z" />
<glyph unicode="&#xb6;" horiz-adv-x="1612" d="M164 1107q0 106 30.5 188.5t95 146t175 97.5t261.5 34q56 0 330 -9.5t307 -10.5h214v-169l-200 -59v-1133l204 -49v-143h-467l-2 1361h-176v-1361h-492v143l211 49v464q-79 0 -151 16.5t-134.5 52.5t-108 88t-71.5 127.5t-26 166.5z" />
<glyph unicode="&#xb7;" horiz-adv-x="773" d="M164 827q0 93 76 160t162 67q101 0 154 -54.5t53 -139.5q0 -97 -74 -158t-168 -61q-81 0 -142 50.5t-61 135.5z" />
<glyph unicode="&#xb8;" horiz-adv-x="674" d="M61 -352q56 -14 126 -14q32 0 50.5 15t18.5 41q0 28 -17.5 42.5t-44.5 14.5q-42 0 -58 -4q1 53 20.5 147t37.5 120h176q-7 -47 2 -141q59 -6 103.5 -28t67 -52t33 -58.5t10.5 -54.5q0 -97 -70 -149.5t-191 -57.5q-123 -6 -264 30v149z" />
<glyph unicode="&#xb9;" horiz-adv-x="1124" d="M191 1534q99 16 288 86.5t228 101.5l81 -15v-813l236 -39v-137h-825v137l259 40v519q-82 -8 -231 -35z" />
<glyph unicode="&#xba;" horiz-adv-x="1169" d="M123 1166q1 91 30.5 165t76 121t108 79t123 46t125.5 16q220 5 341 -114.5t119 -322.5q-1 -91 -31 -164.5t-78 -120.5t-111 -79t-128 -46t-132 -14q-210 -1 -328 110.5t-115 323.5zM436 1169q0 -146 44.5 -224.5t109.5 -78.5q51 0 80.5 21.5t46 85t16.5 178.5 q0 146 -41 229.5t-102 82.5q-26 0 -49.5 -11.5t-49 -40t-40.5 -91t-15 -151.5z" />
<glyph unicode="&#xbb;" horiz-adv-x="2155" d="M223 226l455 393l-455 377l86 148l739 -362v-305l-739 -387zM1095 226l455 393l-455 377l86 148l739 -362v-305l-739 -387z" />
<glyph unicode="&#xbc;" horiz-adv-x="2732" d="M287 1534q99 16 288 86.5t228 101.5l81 -15v-813l236 -39v-137h-825v137l259 40v519q-82 -8 -231 -35zM842 -268l796 2158l214 -72l-800 -2161zM1470 256l519 800h124l136 -156l-457 -527l-81 -94l321 35l12 198l249 29v-199l199 22v-257h-199l1 -284h-290l16 284h-499z " />
<glyph unicode="&#xbd;" horiz-adv-x="2732" d="M287 1534q99 16 288 86.5t228 101.5l81 -15v-813l236 -39v-137h-825v137l259 40v519q-82 -8 -231 -35zM842 -268l796 2149l214 -63l-800 -2161zM1564 154q48 27 80.5 45.5t103 61.5t120.5 78t111.5 84t98 90t58.5 86.5t14 82.5q-11 49 -54 82.5t-122 33.5q-45 0 -91 -16 t-88 -45t-68.5 -51.5t-59.5 -53.5l-83 118q52 91 186 174.5t273 83.5q209 0 319 -76t110 -217t-148 -271q-94 -82 -331 -223q-20 -12 -62 -36q-46 -28 -70 -42l479 86l100 149l163 -44l-68 -336h-908z" />
<glyph unicode="&#xbe;" horiz-adv-x="2902" d="M300 1585q58 55 189.5 97.5t253.5 40.5q82 -2 148.5 -20t106.5 -44.5t67 -59.5t37 -61.5t10 -54.5q0 -85 -43.5 -145.5t-152.5 -109.5q64 -8 113.5 -35t75 -58t41 -67t19.5 -57t4 -34q0 -54 -18 -105t-58 -97.5t-97.5 -81.5t-142.5 -56t-187 -21q-164 0 -327 40v147 q46 -12 111.5 -19t106.5 -4q125 8 198.5 45t87.5 99q3 14 4.5 29.5t-2.5 42.5t-16 49.5t-41.5 45t-73.5 34.5l-230 -56l3 163q279 84 317 179q9 23 5 67q-1 21 -17.5 36.5t-40.5 23.5t-45.5 11.5t-41.5 3.5q-58 2 -139 -21t-154 -67zM842 -268l796 2149l214 -63l-800 -2161z M1470 256l499 800h144l136 -156l-457 -527l-81 -94l321 35l12 198l249 29v-199l199 22v-257h-199l1 -284h-290l16 284h-499z" />
<glyph unicode="&#xbf;" horiz-adv-x="1063" d="M113 116q-6 71 3.5 129t28.5 98q14 24 94.5 59t171.5 78.5t126 84.5q30 35 -10 151t-77 176h250q83 -80 125 -164t42 -146q0 -58 -54.5 -104t-133.5 -74t-159 -50.5t-140.5 -46.5t-67.5 -49q4 -88 40.5 -159t86 -112.5t111.5 -70t111 -39.5t91 -13q178 -7 228 33l15 -272 q-13 -21 -94.5 -37.5t-155.5 -13.5q-134 6 -242 42t-177 91t-117 124.5t-69 141.5t-27 143zM291 1230q0 93 76 160t162 67q101 0 154 -54.5t53 -139.5q0 -97 -74 -158t-168 -61q-81 0 -142 50.5t-61 135.5z" />
<glyph unicode="&#xc0;" horiz-adv-x="1600" d="M5 0v140l133 40l493 1373h333l479 -1375l152 -40v-138h-684v138l134 45l-43 152h-541l-45 -148l149 -47v-140h-560zM377 1728l193 192l373 -220l-101 -107q-51 -3 -221 38t-244 97zM518 521h430l-133 458l-73 274z" />
<glyph unicode="&#xc1;" horiz-adv-x="1600" d="M5 0v140l133 40l493 1373h333l479 -1375l152 -40v-138h-684v138l134 45l-43 152h-541l-45 -148l149 -47v-140h-560zM518 521h430l-133 458l-73 274zM647 1700l393 220l193 -192q-74 -56 -253 -97.5t-232 -37.5z" />
<glyph unicode="&#xc2;" horiz-adv-x="1600" d="M5 0v140l133 40l493 1373h333l479 -1375l152 -40v-138h-684v138l134 45l-43 152h-541l-45 -148l149 -47v-140h-560zM410 1670l275 250h232l270 -250l-112 -73l-272 129l-282 -129zM518 521h430l-133 458l-73 274z" />
<glyph unicode="&#xc3;" horiz-adv-x="1600" d="M5 0v140l133 40l493 1373h333l479 -1375l152 -40v-138h-684v138l134 45l-43 152h-541l-45 -148l149 -47v-140h-560zM372 1712q31 83 131.5 145.5t176.5 62.5q49 0 95 -15.5t74.5 -34.5t62 -34.5t61.5 -15.5q84 0 166 71l89 -97q-31 -82 -127 -136.5t-174 -54.5 q-49 0 -96 16t-76.5 35.5t-64.5 35.5t-63 16q-79 0 -168 -72zM518 521h430l-133 458l-73 274z" />
<glyph unicode="&#xc4;" horiz-adv-x="1600" d="M5 0v140l133 40l493 1373h333l479 -1375l152 -40v-138h-684v138l134 45l-43 152h-541l-45 -148l149 -47v-140h-560zM335 1756q0 70 62.5 117t142.5 47q93 0 138.5 -38.5t45.5 -101.5q0 -72 -63 -117t-149 -45q-75 0 -126 37t-51 101zM518 521h430l-133 458l-73 274z M879 1759q0 67 64 114t143 47q92 0 135 -37.5t43 -100.5q0 -73 -60 -118t-144 -45q-74 0 -127.5 38t-53.5 102z" />
<glyph unicode="&#xc5;" horiz-adv-x="1600" d="M5 0v140l133 40l468 1303q-103 68 -103 190q0 116 83 181.5t214 65.5t215 -67t84 -180q0 -125 -109 -194l453 -1301l152 -40v-138h-684v138l134 45l-43 152h-541l-45 -148l149 -47v-140h-560zM518 521h430l-133 458l-73 274zM674 1674q0 -52 35 -85.5t91 -33.5 q54 0 89.5 33.5t35.5 85.5q0 49 -36 84.5t-89 35.5q-56 0 -91 -34t-35 -86z" />
<glyph unicode="&#xc6;" horiz-adv-x="1937" d="M5 0v141l121 33l554 1379h1063l36 -342h-193l-65 149l-429 22l150 -483l252 6l37 150h159v-495h-160l-39 144l-193 15l176 -570l168 29l111 188l174 -34l-51 -332h-939v140l158 41l-46 155h-612l-59 -154l177 -41v-141h-550zM511 531h481l-171 581l-33 150z" />
<glyph unicode="&#xc7;" horiz-adv-x="1465" d="M63 724q0 188 74 349t196.5 267.5t281 166.5t328.5 60q71 0 141 -8t111 -16.5t97.5 -22t74.5 -17.5l-20 -389h-210l-73 205q-21 32 -67 47.5t-149 15.5q-171 0 -280.5 -150.5t-109.5 -415.5q0 -177 46 -327.5t142 -248t225 -97.5q207 0 241 80l82 201h174v-357 q-33 -2 -89 -20.5t-139.5 -40t-179.5 -29.5q-1 -45 5 -108q59 -6 103.5 -28t67 -52t33 -58.5t10.5 -54.5q0 -97 -70 -149.5t-191 -57.5q-123 -6 -264 30v149q56 -14 126 -14q32 0 50.5 15t18.5 41q0 28 -17.5 42.5t-44.5 14.5q-42 0 -58 -4q1 41 13.5 113.5t28.5 118.5 q-170 11 -305.5 73.5t-223 163t-133.5 231.5t-46 281z" />
<glyph unicode="&#xc8;" horiz-adv-x="1426" d="M101 0v140l147 39v1188l-142 22v164h1135l31 -342h-205l-94 160l-370 21v-519l256 10l54 149h181v-488h-181l-54 159l-256 6v-549l439 28l127 198l208 -37l-54 -349h-1222zM319 1728l193 192l373 -220l-101 -107q-51 -3 -221 38t-244 97z" />
<glyph unicode="&#xc9;" horiz-adv-x="1426" d="M101 0v140l147 39v1188l-142 22v164h1135l31 -342h-205l-94 160l-370 21v-519l256 10l54 149h181v-488h-181l-54 159l-256 6v-549l439 28l127 198l208 -37l-54 -349h-1222zM589 1700l393 220l193 -192q-74 -56 -253 -97.5t-232 -37.5z" />
<glyph unicode="&#xca;" horiz-adv-x="1426" d="M101 0v140l147 39v1188l-142 22v164h1135l31 -342h-205l-94 160l-370 21v-519l256 10l54 149h181v-488h-181l-54 159l-256 6v-549l439 28l127 198l208 -37l-54 -349h-1222zM352 1670l275 250h232l270 -250l-112 -73l-272 129l-282 -129z" />
<glyph unicode="&#xcb;" horiz-adv-x="1426" d="M101 0v140l147 39v1188l-142 22v164h1135l31 -342h-205l-94 160l-370 21v-519l256 10l54 149h181v-488h-181l-54 159l-256 6v-549l439 28l127 198l208 -37l-54 -349h-1222zM277 1756q0 70 62.5 117t142.5 47q93 0 138.5 -38.5t45.5 -101.5q0 -72 -63 -117t-149 -45 q-75 0 -126 37t-51 101zM821 1759q0 67 64 114t143 47q92 0 135 -37.5t43 -100.5q0 -73 -60 -118t-144 -45q-74 0 -127.5 38t-53.5 102z" />
<glyph unicode="&#xcc;" horiz-adv-x="848" d="M-5 1728l193 192l373 -220l-101 -107q-51 -3 -221 38t-244 97zM55 0v140l188 41v1184l-188 24v164h727v-164l-178 -25v-1181l189 -43v-140h-738z" />
<glyph unicode="&#xcd;" horiz-adv-x="848" d="M55 0v140l188 41v1184l-188 24v164h727v-164l-178 -25v-1181l189 -43v-140h-738zM265 1700l393 220l193 -192q-74 -56 -253 -97.5t-232 -37.5z" />
<glyph unicode="&#xce;" horiz-adv-x="848" d="M28 1670l275 250h232l270 -250l-112 -73l-272 129l-282 -129zM55 0v140l188 41v1184l-188 24v164h727v-164l-178 -25v-1181l189 -43v-140h-738z" />
<glyph unicode="&#xcf;" horiz-adv-x="848" d="M-47 1756q0 70 62.5 117t142.5 47q93 0 138.5 -38.5t45.5 -101.5q0 -72 -63 -117t-149 -45q-75 0 -126 37t-51 101zM55 0v140l188 41v1184l-188 24v164h727v-164l-178 -25v-1181l189 -43v-140h-738zM497 1759q0 67 64 114t143 47q92 0 135 -37.5t43 -100.5 q0 -73 -60 -118t-144 -45q-74 0 -127.5 38t-53.5 102z" />
<glyph unicode="&#xd0;" horiz-adv-x="1611" d="M49 704v207h186v457l-141 21v164h328q38 0 159.5 7t191.5 7q161 0 291 -35.5t220 -100.5t150.5 -158t88.5 -205.5t28 -245.5q0 -193 -59 -350.5t-165 -262.5t-254.5 -162t-326.5 -57q-53 0 -167.5 5.5t-150.5 5.5q-56 0 -169 -0.5t-169 -0.5v140l145 40v524h-186z M593 179q72 -46 237 -30q151 14 248.5 179.5t97.5 419.5q0 329 -106 492t-321 167q-45 1 -90 -7.5t-66 -21.5v-467h274v-207h-274v-525z" />
<glyph unicode="&#xd1;" horiz-adv-x="1686" d="M63 0v140l157 45v1161l-150 22v185h509l602 -1048l88 -236v1073l-180 28v183h544v-183l-137 -22v-1348h-392l-545 917l-109 270q0 -167 0.5 -500.5t0.5 -497.5l203 -49v-140h-591zM438 1712q31 83 131.5 145.5t176.5 62.5q49 0 95 -15.5t74.5 -34.5t62 -34.5t61.5 -15.5 q84 0 166 71l89 -97q-31 -82 -127 -136.5t-174 -54.5q-49 0 -96 16t-76.5 35.5t-64.5 35.5t-63 16q-79 0 -168 -72z" />
<glyph unicode="&#xd2;" horiz-adv-x="1600" d="M66 754q4 147 46.5 277.5t114 227t165.5 167t203 106t223 35.5q214 0 379.5 -100.5t253 -277.5t83.5 -399q-5 -247 -103 -434t-262.5 -285.5t-371.5 -98.5q-167 0 -306.5 60.5t-233 165t-144 248.5t-47.5 308zM392 1728l193 192l373 -220l-101 -107q-51 -3 -221 38 t-244 97zM459 755q0 -75 11.5 -155.5t38.5 -165t66 -151t100 -109t135 -42.5q97 0 161.5 40t102 125t53 203t15.5 289q0 82 -11 164.5t-36.5 164t-63 144t-95 101.5t-127.5 39q-98 0 -166 -41.5t-108.5 -126t-58 -201t-17.5 -278.5z" />
<glyph unicode="&#xd3;" horiz-adv-x="1600" d="M66 754q4 147 46.5 277.5t114 227t165.5 167t203 106t223 35.5q214 0 379.5 -100.5t253 -277.5t83.5 -399q-5 -247 -103 -434t-262.5 -285.5t-371.5 -98.5q-167 0 -306.5 60.5t-233 165t-144 248.5t-47.5 308zM459 755q0 -75 11.5 -155.5t38.5 -165t66 -151t100 -109 t135 -42.5q97 0 161.5 40t102 125t53 203t15.5 289q0 82 -11 164.5t-36.5 164t-63 144t-95 101.5t-127.5 39q-98 0 -166 -41.5t-108.5 -126t-58 -201t-17.5 -278.5zM662 1700l393 220l193 -192q-74 -56 -253 -97.5t-232 -37.5z" />
<glyph unicode="&#xd4;" horiz-adv-x="1600" d="M66 754q4 147 46.5 277.5t114 227t165.5 167t203 106t223 35.5q214 0 379.5 -100.5t253 -277.5t83.5 -399q-5 -247 -103 -434t-262.5 -285.5t-371.5 -98.5q-167 0 -306.5 60.5t-233 165t-144 248.5t-47.5 308zM425 1670l275 250h232l270 -250l-112 -73l-272 129 l-282 -129zM459 755q0 -75 11.5 -155.5t38.5 -165t66 -151t100 -109t135 -42.5q97 0 161.5 40t102 125t53 203t15.5 289q0 82 -11 164.5t-36.5 164t-63 144t-95 101.5t-127.5 39q-98 0 -166 -41.5t-108.5 -126t-58 -201t-17.5 -278.5z" />
<glyph unicode="&#xd5;" horiz-adv-x="1600" d="M66 754q4 147 46.5 277.5t114 227t165.5 167t203 106t223 35.5q214 0 379.5 -100.5t253 -277.5t83.5 -399q-5 -247 -103 -434t-262.5 -285.5t-371.5 -98.5q-167 0 -306.5 60.5t-233 165t-144 248.5t-47.5 308zM387 1712q31 83 131.5 145.5t176.5 62.5q49 0 95 -15.5 t74.5 -34.5t62 -34.5t61.5 -15.5q84 0 166 71l89 -97q-31 -82 -127 -136.5t-174 -54.5q-49 0 -96 16t-76.5 35.5t-64.5 35.5t-63 16q-79 0 -168 -72zM459 755q0 -75 11.5 -155.5t38.5 -165t66 -151t100 -109t135 -42.5q97 0 161.5 40t102 125t53 203t15.5 289 q0 82 -11 164.5t-36.5 164t-63 144t-95 101.5t-127.5 39q-98 0 -166 -41.5t-108.5 -126t-58 -201t-17.5 -278.5z" />
<glyph unicode="&#xd6;" horiz-adv-x="1600" d="M66 754q4 147 46.5 277.5t114 227t165.5 167t203 106t223 35.5q214 0 379.5 -100.5t253 -277.5t83.5 -399q-5 -247 -103 -434t-262.5 -285.5t-371.5 -98.5q-167 0 -306.5 60.5t-233 165t-144 248.5t-47.5 308zM350 1756q0 70 62.5 117t142.5 47q93 0 138.5 -38.5 t45.5 -101.5q0 -72 -63 -117t-149 -45q-75 0 -126 37t-51 101zM459 755q0 -75 11.5 -155.5t38.5 -165t66 -151t100 -109t135 -42.5q97 0 161.5 40t102 125t53 203t15.5 289q0 82 -11 164.5t-36.5 164t-63 144t-95 101.5t-127.5 39q-98 0 -166 -41.5t-108.5 -126t-58 -201 t-17.5 -278.5zM894 1759q0 67 64 114t143 47q92 0 135 -37.5t43 -100.5q0 -73 -60 -118t-144 -45q-74 0 -127.5 38t-53.5 102z" />
<glyph unicode="&#xd7;" horiz-adv-x="1422" d="M187 483l362 347l-362 347l175 181l348 -365l348 365l176 -181l-362 -347l362 -347l-175 -181l-348 365l-348 -365z" />
<glyph unicode="&#xd8;" horiz-adv-x="1600" d="M66 754q4 147 46.5 277.5t114 227t165.5 167t203 106t223 35.5q109 0 210 -28l53 153l128 -44l-56 -158q183 -93 284 -278t97 -422q-5 -247 -103 -434t-262.5 -285.5t-371.5 -98.5q-109 0 -207 26l-89 -212l-123 45l88 212q-193 91 -299 280.5t-101 430.5zM459 755 q0 -116 28.5 -244.5t85.5 -222.5l371 1070q-60 44 -135 44q-98 0 -166 -41.5t-108.5 -126t-58 -201t-17.5 -278.5zM674 175q62 -43 136 -43q97 0 161.5 40t102 125t53 203t15.5 289q0 118 -24.5 238t-72.5 210z" />
<glyph unicode="&#xd9;" horiz-adv-x="1601" d="M35 1389v164h682v-164l-169 -23v-756q0 -117 21 -203t53 -134t80 -77t91.5 -37.5t98.5 -8.5q73 0 128 24.5t100 81.5t68.5 160t22.5 250l-3 697l-168 26v164h539v-164l-144 -26v-696q0 -159 -32 -282t-86 -199.5t-131 -125.5t-159 -68.5t-179 -19.5q-336 0 -498.5 161 t-160.5 492l4 740zM443 1728l193 192l373 -220l-101 -107q-51 -3 -221 38t-244 97z" />
<glyph unicode="&#xda;" horiz-adv-x="1601" d="M35 1389v164h682v-164l-169 -23v-756q0 -117 21 -203t53 -134t80 -77t91.5 -37.5t98.5 -8.5q73 0 128 24.5t100 81.5t68.5 160t22.5 250l-3 697l-168 26v164h539v-164l-144 -26v-696q0 -159 -32 -282t-86 -199.5t-131 -125.5t-159 -68.5t-179 -19.5q-336 0 -498.5 161 t-160.5 492l4 740zM713 1700l393 220l193 -192q-74 -56 -253 -97.5t-232 -37.5z" />
<glyph unicode="&#xdb;" horiz-adv-x="1601" d="M35 1389v164h682v-164l-169 -23v-756q0 -117 21 -203t53 -134t80 -77t91.5 -37.5t98.5 -8.5q73 0 128 24.5t100 81.5t68.5 160t22.5 250l-3 697l-168 26v164h539v-164l-144 -26v-696q0 -159 -32 -282t-86 -199.5t-131 -125.5t-159 -68.5t-179 -19.5q-336 0 -498.5 161 t-160.5 492l4 740zM476 1670l275 250h232l270 -250l-112 -73l-272 129l-282 -129z" />
<glyph unicode="&#xdc;" horiz-adv-x="1601" d="M35 1389v164h682v-164l-169 -23v-756q0 -117 21 -203t53 -134t80 -77t91.5 -37.5t98.5 -8.5q73 0 128 24.5t100 81.5t68.5 160t22.5 250l-3 697l-168 26v164h539v-164l-144 -26v-696q0 -159 -32 -282t-86 -199.5t-131 -125.5t-159 -68.5t-179 -19.5q-336 0 -498.5 161 t-160.5 492l4 740zM401 1756q0 70 62.5 117t142.5 47q93 0 138.5 -38.5t45.5 -101.5q0 -72 -63 -117t-149 -45q-75 0 -126 37t-51 101zM945 1759q0 67 64 114t143 47q92 0 135 -37.5t43 -100.5q0 -73 -60 -118t-144 -45q-74 0 -127.5 38t-53.5 102z" />
<glyph unicode="&#xdd;" horiz-adv-x="1470" d="M8 1389v164h630v-161l-106 -20l252 -531l29 -94l33 103l213 514l-159 25q0 27 -0.5 82t-0.5 82h563v-164l-132 -37l-390 -809v-355l269 -48v-140h-865v140l240 45v326l-466 859zM611 1700l393 220l193 -192q-74 -56 -253 -97.5t-232 -37.5z" />
<glyph unicode="&#xde;" horiz-adv-x="1378" d="M23 1389v164h765v-164l-199 -25v-153q151 17 222 17q133 0 234 -22t176.5 -69t114.5 -127t39 -190q0 -246 -156.5 -377t-438.5 -131q-98 0 -191 7v-137l254 -42v-140h-772v140l164 43v1181zM589 483q36 -7 147 -7q124 0 196.5 88.5t72.5 232.5q0 136 -84 198.5t-220 60.5 q-79 -1 -112 -5v-568z" />
<glyph unicode="&#xdf;" horiz-adv-x="1478" d="M46 0v144l152 50v671q0 153 37.5 273.5t99.5 197t148 126.5t176.5 70.5t191.5 20.5q60 0 123 -14t125 -44t101.5 -87t39.5 -132q0 -55 -20.5 -100t-51.5 -74t-66.5 -58t-66.5 -52t-51.5 -56t-20.5 -70q0 -41 21 -72.5t55 -51t77.5 -39.5t89 -36t89 -41.5t77.5 -55 t55 -77.5t21 -109q0 -87 -26 -159t-80 -128.5t-145 -88t-213 -31.5q-86 0 -186 10.5t-123 30.5v197q41 -32 110.5 -57.5t147.5 -25.5q75 0 126 43t51 122q0 47 -24 78.5t-63 48t-85.5 30.5t-93.5 33.5t-86 48t-63 82.5t-24 130q0 60 25.5 108.5t61.5 83.5t72.5 71.5t62 90 t25.5 120.5q0 77 -36 124t-108 47q-74 0 -121.5 -38.5t-74 -131.5t-26.5 -245v-978h-506z" />
<glyph unicode="&#xe0;" horiz-adv-x="1226" d="M60 266.5q-2 61.5 11 127.5q20 83 96.5 146t178.5 96.5t198.5 49.5t179.5 16q0 78 -13.5 129.5t-42.5 79.5t-66 38.5t-91 10.5q-112 0 -203.5 -30t-127.5 -56l-68 154q46 39 183 81t323 42q107 0 186.5 -19t143.5 -64t97 -127t33 -201v-604h131v-107q-82 -57 -259 -57 q-24 0 -50 4.5t-56.5 15.5t-51 35.5t-22.5 58.5q-121 -114 -290 -114q-102 0 -181.5 23t-128 63t-78.5 93.5t-32 115zM222 1657l255 195l315 -426l-88 -89q-58 -2 -128.5 27t-135.5 76.5t-122 104t-96 112.5zM417 335q0 -97 55 -140t161 -28q47 7 90 39q0 57 0.5 171.5 t0.5 171.5q-53 0 -101.5 -9.5t-97.5 -31t-78.5 -66.5t-29.5 -107z" />
<glyph unicode="&#xe1;" horiz-adv-x="1226" d="M60 266.5q-2 61.5 11 127.5q20 83 96.5 146t178.5 96.5t198.5 49.5t179.5 16q0 78 -13.5 129.5t-42.5 79.5t-66 38.5t-91 10.5q-112 0 -203.5 -30t-127.5 -56l-68 154q46 39 183 81t323 42q107 0 186.5 -19t143.5 -64t97 -127t33 -201v-604h131v-107q-82 -57 -259 -57 q-24 0 -50 4.5t-56.5 15.5t-51 35.5t-22.5 58.5q-121 -114 -290 -114q-102 0 -181.5 23t-128 63t-78.5 93.5t-32 115zM417 335q0 -97 55 -140t161 -28q47 7 90 39q0 57 0.5 171.5t0.5 171.5q-53 0 -101.5 -9.5t-97.5 -31t-78.5 -66.5t-29.5 -107zM447 1425l315 426l255 -195 q-68 -105 -203.5 -190t-278.5 -130z" />
<glyph unicode="&#xe2;" horiz-adv-x="1226" d="M60 266.5q-2 61.5 11 127.5q20 83 96.5 146t178.5 96.5t198.5 49.5t179.5 16q0 78 -13.5 129.5t-42.5 79.5t-66 38.5t-91 10.5q-112 0 -203.5 -30t-127.5 -56l-68 154q46 39 183 81t323 42q107 0 186.5 -19t143.5 -64t97 -127t33 -201v-604h131v-107q-82 -57 -259 -57 q-24 0 -50 4.5t-56.5 15.5t-51 35.5t-22.5 58.5q-121 -114 -290 -114q-102 0 -181.5 23t-128 63t-78.5 93.5t-32 115zM187 1409l271 366h253l277 -365l-145 -74l-259 206l-266 -207zM417 335q0 -97 55 -140t161 -28q47 7 90 39q0 57 0.5 171.5t0.5 171.5q-53 0 -101.5 -9.5 t-97.5 -31t-78.5 -66.5t-29.5 -107z" />
<glyph unicode="&#xe3;" horiz-adv-x="1226" d="M60 266.5q-2 61.5 11 127.5q20 83 96.5 146t178.5 96.5t198.5 49.5t179.5 16q0 78 -13.5 129.5t-42.5 79.5t-66 38.5t-91 10.5q-112 0 -203.5 -30t-127.5 -56l-68 154q46 39 183 81t323 42q107 0 186.5 -19t143.5 -64t97 -127t33 -201v-604h131v-107q-82 -57 -259 -57 q-24 0 -50 4.5t-56.5 15.5t-51 35.5t-22.5 58.5q-121 -114 -290 -114q-102 0 -181.5 23t-128 63t-78.5 93.5t-32 115zM155 1467q31 83 131.5 145.5t176.5 62.5q49 0 95 -15.5t74.5 -34.5t62 -34.5t61.5 -15.5q33 0 66 12t52.5 24.5t47.5 34.5l89 -97q-32 -84 -129 -147.5 t-172 -63.5q-49 0 -96 16t-76.5 35.5t-64.5 35.5t-63 16q-68 0 -168 -72zM417 335q0 -97 55 -140t161 -28q47 7 90 39q0 57 0.5 171.5t0.5 171.5q-53 0 -101.5 -9.5t-97.5 -31t-78.5 -66.5t-29.5 -107z" />
<glyph unicode="&#xe4;" horiz-adv-x="1226" d="M60 266.5q-2 61.5 11 127.5q20 83 96.5 146t178.5 96.5t198.5 49.5t179.5 16q0 78 -13.5 129.5t-42.5 79.5t-66 38.5t-91 10.5q-112 0 -203.5 -30t-127.5 -56l-68 154q46 39 183 81t323 42q107 0 186.5 -19t143.5 -64t97 -127t33 -201v-604h131v-107q-82 -57 -259 -57 q-24 0 -50 4.5t-56.5 15.5t-51 35.5t-22.5 58.5q-121 -114 -290 -114q-102 0 -181.5 23t-128 63t-78.5 93.5t-32 115zM129 1486q0 70 62.5 117t142.5 47q93 0 138.5 -38.5t45.5 -101.5q0 -72 -63 -117t-149 -45q-75 0 -126 37t-51 101zM417 335q0 -97 55 -140t161 -28 q47 7 90 39q0 57 0.5 171.5t0.5 171.5q-53 0 -101.5 -9.5t-97.5 -31t-78.5 -66.5t-29.5 -107zM653 1489q0 67 64 114t143 47q92 0 135 -37.5t43 -100.5q0 -73 -60 -118t-144 -45q-74 0 -127.5 38t-53.5 102z" />
<glyph unicode="&#xe5;" horiz-adv-x="1226" d="M60 266.5q-2 61.5 11 127.5q20 83 96.5 146t178.5 96.5t198.5 49.5t179.5 16q0 78 -13.5 129.5t-42.5 79.5t-66 38.5t-91 10.5q-112 0 -203.5 -30t-127.5 -56l-68 154q46 39 183 81t323 42q107 0 186.5 -19t143.5 -64t97 -127t33 -201v-604h131v-107q-82 -57 -259 -57 q-24 0 -50 4.5t-56.5 15.5t-51 35.5t-22.5 58.5q-121 -114 -290 -114q-102 0 -181.5 23t-128 63t-78.5 93.5t-32 115zM291 1560q0 113 86 194t207 81t208 -82t87 -193q0 -114 -86.5 -194.5t-208.5 -80.5q-121 0 -207 80.5t-86 194.5zM417 335q0 -97 55 -140t161 -28 q47 7 90 39q0 57 0.5 171.5t0.5 171.5q-53 0 -101.5 -9.5t-97.5 -31t-78.5 -66.5t-29.5 -107zM451 1560q0 -58 37 -95.5t96 -37.5q56 0 94 37.5t38 95.5q0 55 -38 94.5t-94 39.5q-59 0 -96 -38t-37 -96z" />
<glyph unicode="&#xe6;" horiz-adv-x="1893" d="M60 266.5q-2 61.5 11 127.5q20 83 96.5 146t178.5 96.5t198.5 49.5t179.5 16q0 35 -3 64q-11 111 -61 150t-149 39q-112 0 -203.5 -30t-127.5 -56l-68 159q46 39 183 81t323 42q248 0 357 -106q153 106 366 106q232 0 345.5 -112t120.5 -306q3 -84 -14 -203h-707 q29 -357 327 -357q169 0 329 71l53 -129q-78 -65 -217.5 -105.5t-283.5 -37.5q-267 6 -412 139q-141 -139 -402 -139q-102 0 -181.5 23t-128 63t-78.5 93.5t-32 115zM417 335q0 -97 55 -140t161 -28q53 8 90 29q0 59 0.5 176.5t0.5 176.5q-53 0 -101.5 -9.5t-97.5 -31 t-78.5 -66.5t-29.5 -107zM1085 691h378q10 128 4 177q-19 143 -158 143q-58 0 -104 -35q-103 -78 -120 -285z" />
<glyph unicode="&#xe7;" horiz-adv-x="1134" d="M74 525q-1 188 82.5 330t223 216t315.5 80q105 3 215 -12t154 -40v-317h-183l-79 188q-42 25 -132 25q-102 0 -162.5 -98t-66.5 -273q-4 -117 21 -206.5t71.5 -142.5t105.5 -79.5t128 -26.5q87 0 164.5 21t116.5 50l53 -125q-137 -119 -384 -139q-1 -46 5 -109 q59 -6 103.5 -28t67 -52t33 -58.5t10.5 -54.5q0 -97 -70 -149.5t-191 -57.5q-123 -6 -264 30v149q56 -14 126 -14q32 0 50.5 15t18.5 41q0 28 -17.5 42.5t-44.5 14.5q-42 0 -58 -4q1 42 14.5 117.5t29.5 120.5q-217 29 -335.5 176.5t-120.5 369.5z" />
<glyph unicode="&#xe8;" horiz-adv-x="1239" d="M73 531q0 128 42.5 241t120 197t194 133t257.5 49q232 0 345.5 -112t120.5 -306q3 -84 -14 -203h-697q27 -357 317 -357q168 0 319 67l53 -125q-78 -65 -213 -105.5t-278 -37.5q-272 5 -419.5 150.5t-147.5 408.5zM304 1657l255 195l315 -426l-88 -89q-58 -2 -128.5 27 t-135.5 76.5t-122 104t-96 112.5zM443 691h366q11 130 3 181q-11 79 -59 113q-37 26 -98 26q-56 0 -97 -27.5t-64 -75.5t-35 -101t-16 -116z" />
<glyph unicode="&#xe9;" horiz-adv-x="1239" d="M73 531q0 128 42.5 241t120 197t194 133t257.5 49q232 0 345.5 -112t120.5 -306q3 -84 -14 -203h-697q27 -357 317 -357q168 0 319 67l53 -125q-78 -65 -213 -105.5t-278 -37.5q-272 5 -419.5 150.5t-147.5 408.5zM443 691h366q11 130 3 181q-11 79 -59 113 q-37 26 -98 26q-56 0 -97 -27.5t-64 -75.5t-35 -101t-16 -116zM529 1425l315 426l255 -195q-68 -105 -203.5 -190t-278.5 -130z" />
<glyph unicode="&#xea;" horiz-adv-x="1239" d="M73 531q0 128 42.5 241t120 197t194 133t257.5 49q232 0 345.5 -112t120.5 -306q3 -84 -14 -203h-697q27 -357 317 -357q168 0 319 67l53 -125q-78 -65 -213 -105.5t-278 -37.5q-272 5 -419.5 150.5t-147.5 408.5zM269 1409l271 366h253l277 -365l-145 -74l-259 206 l-266 -207zM443 691h366q11 130 3 181q-11 79 -59 113q-37 26 -98 26q-56 0 -97 -27.5t-64 -75.5t-35 -101t-16 -116z" />
<glyph unicode="&#xeb;" horiz-adv-x="1239" d="M73 531q0 128 42.5 241t120 197t194 133t257.5 49q232 0 345.5 -112t120.5 -306q3 -84 -14 -203h-697q27 -357 317 -357q168 0 319 67l53 -125q-78 -65 -213 -105.5t-278 -37.5q-272 5 -419.5 150.5t-147.5 408.5zM211 1486q0 70 62.5 117t142.5 47q93 0 138.5 -38.5 t45.5 -101.5q0 -72 -63 -117t-149 -45q-75 0 -126 37t-51 101zM443 691h366q11 130 3 181q-11 79 -59 113q-37 26 -98 26q-56 0 -97 -27.5t-64 -75.5t-35 -101t-16 -116zM735 1489q0 67 64 114t143 47q92 0 135 -37.5t43 -100.5q0 -73 -60 -118t-144 -45q-74 0 -127.5 38 t-53.5 102z" />
<glyph unicode="&#xec;" horiz-adv-x="748" d="M28 1657l255 195l315 -426l-88 -89q-58 -2 -128.5 27t-135.5 76.5t-122 104t-96 112.5zM79 0v136l135 28v622l-128 144v93l396 134l85 -25v-970l141 -26v-136h-629z" />
<glyph unicode="&#xed;" horiz-adv-x="748" d="M79 0v136l135 28v622l-128 144v93l396 134l85 -25v-970l141 -26v-136h-629zM253 1425l315 426l255 -195q-68 -105 -203.5 -190t-278.5 -130z" />
<glyph unicode="&#xee;" horiz-adv-x="748" d="M-7 1409l271 366h253l277 -365l-145 -74l-259 206l-266 -207zM79 0v136l135 28v622l-128 144v93l396 134l85 -25v-970l141 -26v-136h-629z" />
<glyph unicode="&#xef;" horiz-adv-x="748" d="M-65 1486q0 70 62.5 117t142.5 47q93 0 138.5 -38.5t45.5 -101.5q0 -72 -63 -117t-149 -45q-75 0 -126 37t-51 101zM79 0v136l135 28v622l-128 144v93l396 134l85 -25v-970l141 -26v-136h-629zM459 1489q0 67 64 114t143 47q92 0 135 -37.5t43 -100.5q0 -73 -60 -118 t-144 -45q-74 0 -127.5 38t-53.5 102z" />
<glyph unicode="&#xf0;" horiz-adv-x="1323" d="M64 502q0 114 32.5 209.5t87.5 160.5t129 110.5t155 66t167 20.5q94 0 171 -30t126 -77q-42 230 -237 395l-165 -148l-103 86l155 142q-127 75 -277 105l26 149q200 -20 386 -123l166 154l110 -96q-83 -73 -155 -136q182 -136 291.5 -346.5t109.5 -491.5q0 -120 -18 -218 t-61.5 -185.5t-112 -147t-175.5 -94t-246 -34.5q-246 0 -404 147.5t-158 381.5zM424 519q0 -161 74 -276t162 -115q50 0 91 22t76.5 70.5t55 138t19.5 212.5q0 63 -9 107q-17 81 -85 156.5t-156 75.5q-125 0 -176.5 -95t-51.5 -296z" />
<glyph unicode="&#xf1;" horiz-adv-x="1466" d="M86 915v126l371 110l75 -19v-148q79 76 192 121.5t227 45.5q183 -1 255.5 -112.5t72.5 -338.5v-538l141 -26v-136h-638v136l143 28v491q0 163 -36.5 214t-160.5 51q-25 0 -77.5 -13.5t-74.5 -32.5v-711l123 -27v-136h-602v136l125 25v658zM336 1467q31 83 131.5 145.5 t176.5 62.5q49 0 95 -15.5t74.5 -34.5t62 -34.5t61.5 -15.5q33 0 66 12t52.5 24.5t47.5 34.5l89 -97q-32 -84 -129 -147.5t-172 -63.5q-49 0 -96 16t-76.5 35.5t-64.5 35.5t-63 16q-68 0 -168 -72z" />
<glyph unicode="&#xf2;" horiz-adv-x="1335" d="M74 561q2 148 53 263.5t137.5 185t193 105t228.5 37.5q272 3 424 -141.5t152 -419.5q0 -153 -49.5 -273t-134.5 -193t-191.5 -111t-228.5 -38q-125 0 -224.5 30t-166.5 83t-111.5 127.5t-63.5 160t-18 184.5zM309 1657l255 195l315 -426l-88 -89q-58 -2 -128.5 27 t-135.5 76.5t-122 104t-96 112.5zM450 589q0 -57 5.5 -114.5t20.5 -123t38.5 -115t63.5 -82t91 -32.5q54 0 94 27.5t63 70t37 105t18.5 121t4.5 128.5q0 432 -209 432q-67 0 -113.5 -36.5t-70 -100t-33.5 -131.5t-10 -149z" />
<glyph unicode="&#xf3;" horiz-adv-x="1335" d="M74 561q2 148 53 263.5t137.5 185t193 105t228.5 37.5q272 3 424 -141.5t152 -419.5q0 -153 -49.5 -273t-134.5 -193t-191.5 -111t-228.5 -38q-125 0 -224.5 30t-166.5 83t-111.5 127.5t-63.5 160t-18 184.5zM450 589q0 -57 5.5 -114.5t20.5 -123t38.5 -115t63.5 -82 t91 -32.5q54 0 94 27.5t63 70t37 105t18.5 121t4.5 128.5q0 432 -209 432q-67 0 -113.5 -36.5t-70 -100t-33.5 -131.5t-10 -149zM534 1425l315 426l255 -195q-68 -105 -203.5 -190t-278.5 -130z" />
<glyph unicode="&#xf4;" horiz-adv-x="1335" d="M74 561q2 148 53 263.5t137.5 185t193 105t228.5 37.5q272 3 424 -141.5t152 -419.5q0 -153 -49.5 -273t-134.5 -193t-191.5 -111t-228.5 -38q-125 0 -224.5 30t-166.5 83t-111.5 127.5t-63.5 160t-18 184.5zM274 1409l271 366h253l277 -365l-145 -74l-259 206l-266 -207 zM450 589q0 -57 5.5 -114.5t20.5 -123t38.5 -115t63.5 -82t91 -32.5q54 0 94 27.5t63 70t37 105t18.5 121t4.5 128.5q0 432 -209 432q-67 0 -113.5 -36.5t-70 -100t-33.5 -131.5t-10 -149z" />
<glyph unicode="&#xf5;" horiz-adv-x="1335" d="M74 561q2 148 53 263.5t137.5 185t193 105t228.5 37.5q272 3 424 -141.5t152 -419.5q0 -153 -49.5 -273t-134.5 -193t-191.5 -111t-228.5 -38q-125 0 -224.5 30t-166.5 83t-111.5 127.5t-63.5 160t-18 184.5zM242 1467q31 83 131.5 145.5t176.5 62.5q49 0 95 -15.5 t74.5 -34.5t62 -34.5t61.5 -15.5q33 0 66 12t52.5 24.5t47.5 34.5l89 -97q-32 -84 -129 -147.5t-172 -63.5q-49 0 -96 16t-76.5 35.5t-64.5 35.5t-63 16q-68 0 -168 -72zM450 589q0 -57 5.5 -114.5t20.5 -123t38.5 -115t63.5 -82t91 -32.5q54 0 94 27.5t63 70t37 105 t18.5 121t4.5 128.5q0 432 -209 432q-67 0 -113.5 -36.5t-70 -100t-33.5 -131.5t-10 -149z" />
<glyph unicode="&#xf6;" horiz-adv-x="1335" d="M74 561q2 148 53 263.5t137.5 185t193 105t228.5 37.5q272 3 424 -141.5t152 -419.5q0 -153 -49.5 -273t-134.5 -193t-191.5 -111t-228.5 -38q-125 0 -224.5 30t-166.5 83t-111.5 127.5t-63.5 160t-18 184.5zM216 1486q0 70 62.5 117t142.5 47q93 0 138.5 -38.5 t45.5 -101.5q0 -72 -63 -117t-149 -45q-75 0 -126 37t-51 101zM450 589q0 -57 5.5 -114.5t20.5 -123t38.5 -115t63.5 -82t91 -32.5q54 0 94 27.5t63 70t37 105t18.5 121t4.5 128.5q0 432 -209 432q-67 0 -113.5 -36.5t-70 -100t-33.5 -131.5t-10 -149zM740 1489q0 67 64 114 t143 47q92 0 135 -37.5t43 -100.5q0 -73 -60 -118t-144 -45q-74 0 -127.5 38t-53.5 102z" />
<glyph unicode="&#xf7;" horiz-adv-x="1400" d="M183 722v236h1034v-236h-1034zM514 313q0 93 73.5 157.5t159.5 64.5q101 0 151 -52t50 -137q0 -98 -71 -158.5t-165 -60.5q-80 0 -139 50.5t-59 135.5zM515 1331q0 93 73.5 157.5t159.5 64.5q101 0 151 -52t50 -137q0 -98 -71 -158.5t-165 -60.5q-80 0 -139 50.5 t-59 135.5z" />
<glyph unicode="&#xf8;" horiz-adv-x="1335" d="M74 561q2 148 53 263.5t137.5 185t193 105t228.5 37.5q64 0 107 -5l50 164l110 -26l-49 -160q172 -49 265 -185t93 -349q0 -153 -49.5 -273t-134.5 -193t-191.5 -111t-228.5 -38q-53 0 -116 7l-57 -188l-113 27l57 185q-184 57 -270.5 204t-84.5 350zM450 589 q0 -213 61 -344l230 748q-31 13 -64 13q-67 0 -113.5 -36.5t-70 -100t-33.5 -131.5t-10 -149zM599 139q32 -17 70 -17q54 0 94 27.5t63 70t37 105t18.5 121t4.5 128.5q0 220 -55 328z" />
<glyph unicode="&#xf9;" horiz-adv-x="1331" d="M53 938v122l382 91l53 -17v-696q0 -143 32 -207t121 -64q52 0 103 15t75 38v631l-127 71v138l418 91l56 -17v-998h114v-107q-32 -24 -115.5 -40.5t-167.5 -16.5q-64 0 -103.5 26.5t-39.5 83.5v38q-54 -65 -153.5 -106.5t-176.5 -41.5q-206 0 -291.5 98t-85.5 321v477z M281 1657l255 195l315 -426l-88 -89q-58 -2 -128.5 27t-135.5 76.5t-122 104t-96 112.5z" />
<glyph unicode="&#xfa;" horiz-adv-x="1331" d="M53 938v122l382 91l53 -17v-696q0 -143 32 -207t121 -64q52 0 103 15t75 38v631l-127 71v138l418 91l56 -17v-998h114v-107q-32 -24 -115.5 -40.5t-167.5 -16.5q-64 0 -103.5 26.5t-39.5 83.5v38q-54 -65 -153.5 -106.5t-176.5 -41.5q-206 0 -291.5 98t-85.5 321v477z M506 1425l315 426l255 -195q-68 -105 -203.5 -190t-278.5 -130z" />
<glyph unicode="&#xfb;" horiz-adv-x="1331" d="M53 938v122l382 91l53 -17v-696q0 -143 32 -207t121 -64q52 0 103 15t75 38v631l-127 71v138l418 91l56 -17v-998h114v-107q-32 -24 -115.5 -40.5t-167.5 -16.5q-64 0 -103.5 26.5t-39.5 83.5v38q-54 -65 -153.5 -106.5t-176.5 -41.5q-206 0 -291.5 98t-85.5 321v477z M246 1409l271 366h253l277 -365l-145 -74l-259 206l-266 -207z" />
<glyph unicode="&#xfc;" horiz-adv-x="1331" d="M53 938v122l382 91l53 -17v-696q0 -143 32 -207t121 -64q52 0 103 15t75 38v631l-127 71v138l418 91l56 -17v-998h114v-107q-32 -24 -115.5 -40.5t-167.5 -16.5q-64 0 -103.5 26.5t-39.5 83.5v38q-54 -65 -153.5 -106.5t-176.5 -41.5q-206 0 -291.5 98t-85.5 321v477z M188 1486q0 70 62.5 117t142.5 47q93 0 138.5 -38.5t45.5 -101.5q0 -72 -63 -117t-149 -45q-75 0 -126 37t-51 101zM712 1489q0 67 64 114t143 47q92 0 135 -37.5t43 -100.5q0 -73 -60 -118t-144 -45q-74 0 -127.5 38t-53.5 102z" />
<glyph unicode="&#xfd;" horiz-adv-x="1233" d="M5 940v179h585v-179l-114 -25l197 -534l16 -103l29 103l163 536l-137 23v179h508v-179l-100 -21q-129 -326 -222 -556.5t-126 -311t-43 -107.5q-47 -124 -90 -208.5t-97 -150t-120 -96.5t-148 -31q-46 0 -91 3q-51 3 -70 12l2 266q87 -18 148 -16q182 6 247 277h-56 l-394 914zM531 1425l315 426l255 -195q-68 -105 -203.5 -190t-278.5 -130z" />
<glyph unicode="&#xfe;" horiz-adv-x="1348" d="M15 -371l156 30q0 67 -0.5 201t-0.5 200v1324l-125 57v140l422 48l57 -17v-524q114 63 263 63q97 0 181 -30t154.5 -92.5t111.5 -171t41 -252.5q0 -97 -28.5 -190.5t-84 -173t-130.5 -140t-175.5 -95t-212.5 -34.5q-56 0 -135 7l15 -82v-240l214 -28v-140h-723v140z M524 201q44 -84 156 -84q224 0 238 450q3 102 -20 183.5t-63.5 129t-88 72t-96.5 24.5q-69 0 -126 -19v-756z" />
<glyph unicode="&#xff;" horiz-adv-x="1233" d="M5 940v179h585v-179l-114 -25l197 -534l16 -103l29 103l163 536l-137 23v179h508v-179l-100 -21q-129 -326 -222 -556.5t-126 -311t-43 -107.5q-47 -124 -90 -208.5t-97 -150t-120 -96.5t-148 -31q-46 0 -91 3q-51 3 -70 12l2 266q87 -18 148 -16q182 6 247 277h-56 l-394 914zM213 1486q0 70 62.5 117t142.5 47q93 0 138.5 -38.5t45.5 -101.5q0 -72 -63 -117t-149 -45q-75 0 -126 37t-51 101zM737 1489q0 67 64 114t143 47q92 0 135 -37.5t43 -100.5q0 -73 -60 -118t-144 -45q-74 0 -127.5 38t-53.5 102z" />
<glyph unicode="&#x152;" horiz-adv-x="2222" d="M66 754q4 147 46.5 277.5t114 227t165.5 167t203 106t223 35.5q76 0 151 -14h1055l31 -342h-175l-94 160l-370 21v-527l261 10l44 146h161v-488h-161l-44 159l-261 6v-538l457 28l127 198l178 -37l-54 -349h-1122q-101 -28 -205 -28q-167 0 -306.5 60.5t-233 165 t-144 248.5t-47.5 308zM459 755q0 -75 11.5 -155.5t38.5 -165t66 -151t100 -109t135 -42.5q173 0 251 139v935q-91 196 -252 196q-98 0 -166 -41.5t-108.5 -126t-58 -201t-17.5 -278.5z" />
<glyph unicode="&#x153;" horiz-adv-x="2168" d="M74 561q2 148 53 263.5t137.5 185t193 105t228.5 37.5q327 3 475 -201q81 95 200 147.5t267 52.5q232 0 345.5 -112t120.5 -306q3 -84 -14 -203h-697q27 -357 317 -357q168 0 319 67l53 -125q-78 -65 -213 -105.5t-278 -37.5q-315 6 -461 196q-82 -95 -202.5 -143 t-259.5 -49q-125 0 -224.5 30t-166.5 83t-111.5 127.5t-63.5 160t-18 184.5zM450 589q0 -57 5.5 -114.5t20.5 -123t38.5 -115t63.5 -82t91 -32.5q54 0 94 27.5t63 70t37 105t18.5 121t4.5 128.5q0 432 -209 432q-67 0 -113.5 -36.5t-70 -100t-33.5 -131.5t-10 -149z M1384 691h366q11 130 3 181q-11 79 -59 113q-37 26 -98 26q-56 0 -97 -27.5t-64 -75.5t-35 -101t-16 -116z" />
<glyph unicode="&#x178;" horiz-adv-x="1470" d="M8 1389v164h630v-161l-106 -20l252 -531l29 -94l33 103l213 514l-159 25q0 27 -0.5 82t-0.5 82h563v-164l-132 -37l-390 -809v-355l269 -48v-140h-865v140l240 45v326l-466 859zM299 1756q0 70 62.5 117t142.5 47q93 0 138.5 -38.5t45.5 -101.5q0 -72 -63 -117t-149 -45 q-75 0 -126 37t-51 101zM843 1759q0 67 64 114t143 47q92 0 135 -37.5t43 -100.5q0 -73 -60 -118t-144 -45q-74 0 -127.5 38t-53.5 102z" />
<glyph unicode="&#x2c6;" horiz-adv-x="1063" d="M131 1409l271 366h253l277 -365l-145 -74l-259 206l-266 -207z" />
<glyph unicode="&#x2dc;" horiz-adv-x="1081" d="M112 1467q31 83 131.5 145.5t176.5 62.5q49 0 95 -15.5t74.5 -34.5t62 -34.5t61.5 -15.5q33 0 66 12t52.5 24.5t47.5 34.5l89 -97q-32 -84 -129 -147.5t-172 -63.5q-49 0 -96 16t-76.5 35.5t-64.5 35.5t-63 16q-68 0 -168 -72z" />
<glyph unicode="&#x2000;" horiz-adv-x="960" />
<glyph unicode="&#x2001;" horiz-adv-x="1920" />
<glyph unicode="&#x2002;" horiz-adv-x="960" />
<glyph unicode="&#x2003;" horiz-adv-x="1920" />
<glyph unicode="&#x2004;" horiz-adv-x="640" />
<glyph unicode="&#x2005;" horiz-adv-x="480" />
<glyph unicode="&#x2006;" horiz-adv-x="320" />
<glyph unicode="&#x2007;" horiz-adv-x="320" />
<glyph unicode="&#x2008;" horiz-adv-x="240" />
<glyph unicode="&#x2009;" horiz-adv-x="384" />
<glyph unicode="&#x200a;" horiz-adv-x="106" />
<glyph unicode="&#x2010;" horiz-adv-x="1320" d="M183 722v236h954v-236h-954z" />
<glyph unicode="&#x2011;" horiz-adv-x="1320" d="M183 722v236h954v-236h-954z" />
<glyph unicode="&#x2012;" horiz-adv-x="1320" d="M183 722v236h954v-236h-954z" />
<glyph unicode="&#x2013;" horiz-adv-x="1510" d="M183 722v236h1144v-236h-1144z" />
<glyph unicode="&#x2014;" horiz-adv-x="2415" d="M183 724v234h2049v-234h-2049z" />
<glyph unicode="&#x2018;" horiz-adv-x="922" d="M194 1192q2 89 30 172.5t72 146.5t100.5 116t114 88t115.5 56l103 -93v-43q-65 -26 -130 -123t-65 -188q0 -69 48.5 -130.5t109.5 -67.5v-78l-232 -288q-59 20 -106.5 59t-77 85t-49 98.5t-27 99.5t-6.5 90z" />
<glyph unicode="&#x2019;" horiz-adv-x="922" d="M193 855v43q66 25 131 122.5t65 188.5q0 69 -49.5 130.5t-110.5 67.5v77l232 289q73 -26 128 -78.5t84 -115t42.5 -123t12.5 -114.5q-2 -89 -30.5 -172.5t-72 -146.5t-100.5 -116.5t-114 -88t-114 -55.5z" />
<glyph unicode="&#x201a;" horiz-adv-x="922" d="M193 -404q68 26 131.5 108.5t63.5 172.5q0 69 -49 130.5t-110 67.5v77l232 288q73 -25 128 -77.5t84 -115.5t42.5 -123.5t12.5 -114.5q-2 -89 -30.5 -169t-71.5 -138.5t-101 -108t-113.5 -80.5t-114.5 -53l-104 93v43z" />
<glyph unicode="&#x201c;" horiz-adv-x="1537" d="M194 1190q2 89 30 172.5t72 146.5t101 116.5t114 88.5t114 56l105 -94v-42q-67 -25 -131.5 -122t-64.5 -189q0 -69 48.5 -130.5t109.5 -67.5v-77l-232 -289q-73 26 -128.5 78.5t-84.5 115.5t-42 123.5t-11 113.5zM808 1190q2 111 44 211t107 171t136 121t143 77l106 -94 v-42q-66 -25 -131.5 -122t-65.5 -189q0 -69 49.5 -130.5t110.5 -67.5v-77l-233 -289q-72 26 -127.5 78.5t-85 115.5t-42.5 123.5t-11 113.5z" />
<glyph unicode="&#x201d;" horiz-adv-x="1538" d="M193 851v43q66 25 131.5 122t65.5 189q0 69 -49.5 130.5t-110.5 67.5v77l232 289q73 -26 128.5 -78.5t84.5 -115t42.5 -123t11.5 -114.5q-2 -89 -30.5 -172.5t-72 -146.5t-100.5 -116.5t-114 -88t-113 -55.5zM806 851v43q67 25 132 122t65 189q0 69 -48.5 130.5 t-109.5 67.5v77l231 289q73 -26 128.5 -78.5t84.5 -115.5t42.5 -123t12.5 -114q-2 -111 -44 -211t-107 -171t-136.5 -121t-143.5 -76z" />
<glyph unicode="&#x201e;" horiz-adv-x="1488" d="M193 -431q67 25 132 121.5t65 188.5q0 69 -49 131t-110 68v77l233 289q73 -26 128 -78.5t84.5 -115.5t42.5 -124t11 -114q-2 -110 -44 -210t-107 -171t-136 -121t-143 -77l-107 94v42zM757 -431q67 25 132 121.5t65 188.5q0 69 -49 131t-109 68v77l232 289 q73 -26 128.5 -78.5t84.5 -115.5t42 -123.5t11 -114.5q-2 -89 -30 -172t-72 -146t-101 -116.5t-114 -88.5t-114 -56l-106 94v42z" />
<glyph unicode="&#x2022;" horiz-adv-x="919" d="M119 777q10 139 115 234.5t244 95.5q140 0 236.5 -96.5t86.5 -233.5q-11 -140 -115 -237.5t-243 -97.5q-138 0 -237 101t-87 234z" />
<glyph unicode="&#x2026;" horiz-adv-x="2397" d="M179 157q0 93 76 160t162 67q101 0 154 -54.5t53 -139.5q0 -97 -74 -158t-168 -61q-81 0 -142 50.5t-61 135.5zM976 157q0 93 76 160t162 67q101 0 154 -54.5t53 -139.5q0 -97 -74 -158t-168 -61q-81 0 -142 50.5t-61 135.5zM1773 157q0 93 76 160t162 67 q101 0 154 -54.5t53 -139.5q0 -97 -74 -158t-168 -61q-81 0 -142 50.5t-61 135.5z" />
<glyph unicode="&#x202f;" horiz-adv-x="384" />
<glyph unicode="&#x2039;" horiz-adv-x="1283" d="M229 452v305l739 387l86 -136l-456 -394l456 -376l-86 -148z" />
<glyph unicode="&#x203a;" horiz-adv-x="1283" d="M223 226l455 393l-455 377l86 148l739 -362v-305l-739 -387z" />
<glyph unicode="&#x205f;" horiz-adv-x="480" />
<glyph unicode="&#x20ac;" horiz-adv-x="1697" d="M87 524v167h179v23q0 87 13 171h-162v171h202q29 86 71 159t105.5 139t142 112.5t184 73.5t228.5 27q91 0 184.5 -24t159.5 -41.5t114 -5.5l-18 -378h-158l-72 190q-99 77 -264 77q-151 0 -223 -83t-94 -246h443v-171h-456q-1 -38 -1 -119q0 -51 1 -75h438v-167h-425 q26 -183 109.5 -280.5t251.5 -98.5q93 -1 153 33q24 14 42.5 35.5t31.5 49.5t20.5 51t17.5 58.5t16 52.5h186v-362q-50 7 -78.5 0.5t-73.5 -21.5t-86 -30.5t-116 -27.5t-163 -12q-275 0 -463 149t-242 403h-198z" />
<glyph unicode="&#x2122;" horiz-adv-x="2337" d="M183 1284l12 269h760l9 -263l-86 -9l-48 126l-126 19v-539l120 -20v-90h-472v90l115 19v540l-151 -26l-37 -112zM1011 777v90l116 23l26 538l-91 12v113h386l126 -354l21 -93l145 447h368v-113l-89 -11l35 -540l100 -23v-89h-407v89l74 19l4 346q0 7 0.5 22t1 64t1.5 121 l-15 -73l-203 -596h-81l-228 556l-34 108l7 -152l-6 -392l93 -22v-90h-350z" />
<glyph unicode="&#x25fc;" horiz-adv-x="1120" d="M0 0v1120h1120v-1120h-1120z" />
<glyph unicode="&#xfb01;" horiz-adv-x="1694" d="M51 913v105l183 79v105q0 89 36.5 182t99.5 171.5t158 128.5t202 50q140 0 215 -32v-260q-144 55 -224 55q-38 0 -59 -5t-40 -23.5t-26.5 -57t-7.5 -103.5v-189h300v-206h-300v-748l240 -29v-136h-756v136l162 30v747h-183zM1025 0v136l135 28v622l-128 144v93l396 128 l85 -25v-964l144 -26v-136h-632zM1099 1513q0 93 76.5 158.5t168.5 65.5q102 0 153.5 -53t51.5 -136q0 -98 -73.5 -160.5t-170.5 -62.5q-83 0 -144.5 52t-61.5 136z" />
<glyph unicode="&#xfb02;" horiz-adv-x="1681" d="M51 913v105l183 79v105q0 89 36.5 182t99.5 171.5t158 128.5t202 50q140 0 215 -32v-260q-144 55 -224 55q-38 0 -59 -5t-40 -23.5t-26.5 -57t-7.5 -103.5v-189h300v-206h-300v-748l240 -29v-136h-756v136l162 30v747h-183zM999 1441v140l431 49l58 -18v-1446l175 -30 v-136h-647v136l118 25v1223z" />
<glyph unicode="&#xfb03;" horiz-adv-x="2640" d="M51 913v105l183 79v105q0 89 36.5 182t99.5 171.5t158 128.5t202 50q140 0 215 -32v-260q-144 55 -224 55q-38 0 -59 -5t-40 -23.5t-26.5 -57t-7.5 -103.5v-189h300v-206h-300v-748l240 -29v-136h-756v136l162 30v747h-183zM997 913v105l183 79v105q0 89 36.5 182 t99.5 171.5t158 128.5t202 50q140 0 215 -32v-260q-144 55 -224 55q-38 0 -59 -5t-40 -23.5t-26.5 -57t-7.5 -103.5v-189h300v-206h-300v-748l240 -29v-136h-756v136l162 30v747h-183zM1971 0v136l135 28v622l-128 144v93l396 128l85 -25v-964l144 -26v-136h-632zM2045 1513 q0 93 76.5 158.5t168.5 65.5q102 0 153.5 -53t51.5 -136q0 -98 -73.5 -160.5t-170.5 -62.5q-83 0 -144.5 52t-61.5 136z" />
<glyph unicode="&#xfb04;" horiz-adv-x="2627" d="M51 913v105l183 79v105q0 89 36.5 182t99.5 171.5t158 128.5t202 50q140 0 215 -32v-260q-144 55 -224 55q-38 0 -59 -5t-40 -23.5t-26.5 -57t-7.5 -103.5v-189h300v-206h-300v-748l240 -29v-136h-756v136l162 30v747h-183zM997 913v105l183 79v105q0 89 36.5 182 t99.5 171.5t158 128.5t202 50q140 0 215 -32v-260q-144 55 -224 55q-38 0 -59 -5t-40 -23.5t-26.5 -57t-7.5 -103.5v-189h300v-206h-300v-748l240 -29v-136h-756v136l162 30v747h-183zM1945 1441v140l431 49l58 -18v-1446l175 -30v-136h-647v136l118 25v1223z" />
</font>
</defs>
</svg>
