<?xml version="1.0" standalone="no"?>
<!DOCTYPE svg PUBLIC "-//W3C//DTD SVG 1.1//EN" "http://www.w3.org/Graphics/SVG/1.1/DTD/svg11.dtd" >
<svg xmlns="http://www.w3.org/2000/svg">
<metadata></metadata>
<defs>
<font id="merriweatherlight" horiz-adv-x="0" >
<font-face units-per-em="2048" ascent="1638" descent="-410" />
<missing-glyph horiz-adv-x="523" />
<glyph />
<glyph />
<glyph unicode="&#xd;" />
<glyph />
<glyph />
<glyph />
<glyph />
<glyph />
<glyph />
<glyph />
<glyph />
<glyph unicode="&#x9;" />
<glyph unicode="&#xa;" />
<glyph />
<glyph />
<glyph />
<glyph />
<glyph />
<glyph />
<glyph />
<glyph />
<glyph />
<glyph />
<glyph />
<glyph />
<glyph />
<glyph />
<glyph />
<glyph />
<glyph />
<glyph />
<glyph />
<glyph />
<glyph unicode=" "  horiz-adv-x="523" />
<glyph unicode="&#x09;" horiz-adv-x="523" />
<glyph unicode="&#xa0;" horiz-adv-x="523" />
<glyph unicode="!" horiz-adv-x="706" d="M240 73q0 46 37 79t81 33q48 0 73.5 -27t25.5 -68q0 -48 -36 -80t-82 -32q-40 0 -69.5 26.5t-29.5 68.5zM248 1780h190l-53 -1326h-92z" />
<glyph unicode="&#x22;" horiz-adv-x="1260" d="M325 1782h170l-37 -816h-96zM765 1782h170l-37 -816h-96z" />
<glyph unicode="#" horiz-adv-x="1431" d="M150 365v98h229l40 465h-247v97h253l30 330h127l-27 -330h378l29 330h127l-28 -330h220v-97h-226l-41 -465h232q0 -15 0.5 -49t0.5 -49h-237l-34 -365h-122l28 365h-379l-36 -365h-124l32 365h-225zM508 463h378l40 465h-377z" />
<glyph unicode="$" horiz-adv-x="1270" d="M174 63v299h73l47 -204q58 -54 154.5 -77.5t200.5 -23.5q67 0 128.5 16.5t114.5 50t84.5 93t31.5 138.5q0 38 -12.5 74t-30 64t-50.5 58t-61 50t-75.5 47t-78.5 43t-85 42q-56 28 -91 46t-86 47.5t-82.5 54t-67.5 59t-56 68.5t-34 78t-14 91q0 91 38 163.5t101 117.5 t135 70.5t150 33.5l6 169h120l-6 -166q210 -10 326 -78v-267h-68l-59 199q-81 71 -270 69q-57 0 -113.5 -16t-108 -48.5t-83 -90.5t-31.5 -133q0 -35 11 -68t28.5 -59.5t47 -53.5t57 -47t69.5 -44t74.5 -40t80.5 -39q51 -25 74 -36t71 -36.5t72 -40.5t63 -42t59.5 -48.5 t47 -52t39 -59.5t22 -65t9.5 -75q0 -101 -36 -179t-100.5 -127t-147.5 -76.5t-183 -32.5l-7 -210h-120l6 210q-122 7 -232.5 33t-151.5 51z" />
<glyph unicode="%" horiz-adv-x="1770" d="M91 1053q0 171 96 270t235 104q77 3 136 -25t94.5 -79t53.5 -117t18 -144q0 -170 -96 -268t-234 -102q-136 -4 -219.5 102.5t-83.5 258.5zM212 1061q0 -129 50 -208.5t141 -79.5q94 0 148 74.5t54 207.5q0 135 -50 214t-141 79q-94 0 -148 -77t-54 -210zM534 0l574 1601 h121l-573 -1601h-122zM1045 525q0 171 96 270t235 104q77 3 136 -25t94.5 -79t53.5 -117t18 -144q0 -170 -96 -268t-234 -102q-136 -4 -219.5 102.5t-83.5 258.5zM1165 533q0 -129 50 -208.5t141 -79.5q93 0 147.5 75t54.5 207q0 135 -50 214t-141 79q-94 0 -148 -77.5 t-54 -209.5z" />
<glyph unicode="&#x26;" horiz-adv-x="1569" d="M188 356q0 62 20 116.5t49.5 93.5t78 77t90 62t99.5 53q-45 59 -70.5 96t-60 95t-51 114.5t-17.5 113.5q-4 176 102.5 279t267.5 103q162 0 248 -90t89 -229q3 -147 -92.5 -273.5t-242.5 -210.5q78 -97 209 -243.5t204 -214.5l45 -41q50 93 50 234q0 92 -16 158t-31 89 h140q38 -100 38 -217q0 -199 -101 -332q72 -57 129.5 -81.5t123.5 -25.5v-67q-50 -19 -133 -9q-91 10 -212 95q-73 -64 -187 -98.5t-221 -34.5q-68 0 -136 9.5t-144.5 36.5t-134 68t-95.5 112t-38 162zM326 371q0 -97 59 -169t152.5 -106.5t206.5 -34.5q227 0 329 95 q-1 1 -10 8.5t-13 11.5q-98 84 -246 246t-233 274q-131 -68 -188 -140.5t-57 -184.5zM455 1227q1 -56 16 -111t31.5 -92.5t49 -84t48 -65.5t48.5 -57q125 63 193.5 166t66.5 234q-1 36 -7 70t-22.5 70t-41.5 62.5t-65.5 43.5t-92.5 17q-41 0 -79.5 -14.5t-72 -43.5 t-53.5 -79.5t-19 -115.5z" />
<glyph unicode="'" horiz-adv-x="820" d="M325 1782h170l-37 -816h-96z" />
<glyph unicode="(" horiz-adv-x="813" d="M114 735q0 164 41 321t100.5 268t129.5 203.5t122.5 141t85.5 66.5l69 -41q-31 -20 -74.5 -63.5t-101.5 -126.5t-106.5 -182.5t-84.5 -242.5t-41 -295q-5 -177 27.5 -340.5t81.5 -274.5t112 -203.5t109 -139.5t82 -72l-79 -48q-24 14 -55.5 39t-78.5 73t-91.5 106.5 t-90.5 144t-80 181t-55.5 222t-21.5 263.5z" />
<glyph unicode=")" horiz-adv-x="813" d="M147 1684l80 48q24 -14 55.5 -39t78.5 -73t91 -106t90 -143.5t80 -181t55.5 -222t21.5 -263.5q0 -138 -28.5 -271.5t-75 -236t-100.5 -190.5t-109.5 -150t-96.5 -99.5t-68 -52.5l-70 40q31 20 75 64t102 127t106.5 182.5t84 242.5t40.5 295q5 177 -27 340t-81 274 t-112 203.5t-109.5 139.5t-82.5 72z" />
<glyph unicode="*" horiz-adv-x="1295" d="M164 1052l341 189l89 37l-90 38l-340 185l73 108l304 -225l75 -67l-19 117l-24 352q21 0 69.5 -0.5t68.5 -0.5l-24 -351l-23 -117l93 78l289 213l84 -107l-342 -179l-103 -44l101 -41l345 -187l-86 -103l-300 225l-80 67l20 -107l26 -364h-138l24 364l19 107l-70 -64 l-306 -230z" />
<glyph unicode="+" horiz-adv-x="1257" d="M172 738v118h241l162 -10l-7 166v248h120v-248l-8 -166l144 10h261v-118h-261l-144 7l8 -166v-258h-120v258l7 165l-162 -6h-241z" />
<glyph unicode="," horiz-adv-x="701" d="M176 -407q76 27 139.5 119t63.5 200q0 89 -44 153t-103 73v36l80 105q68 -16 117 -69.5t69 -115t21 -123.5q1 -81 -26 -156t-73 -130.5t-99.5 -96t-109.5 -63.5l-35 44v24z" />
<glyph unicode="-" horiz-adv-x="1229" d="M172 743v111h885v-111h-885z" />
<glyph unicode="." horiz-adv-x="706" d="M232 87q7 41 42 66t72 20q42 -5 59 -32.5t10 -64.5q-5 -43 -40 -67t-75 -19q-34 5 -54.5 32t-13.5 65z" />
<glyph unicode="/" horiz-adv-x="816" d="M30 -363l552 1962h137l-552 -1962h-137z" />
<glyph unicode="0" horiz-adv-x="1327" d="M131 632q1 114 31 213t82 172.5t121 126.5t149.5 80t166.5 28q141 1 244 -46.5t161 -135.5t84.5 -198.5t25.5 -248.5q-1 -142 -43.5 -264t-115 -206t-171.5 -132.5t-210 -48.5t-201 36t-150 97.5t-100.5 146.5t-57.5 180t-16 200zM285 638q0 -156 38 -283.5t124 -212 t210 -86.5q131 -2 219 67.5t127.5 193t39.5 298.5q0 161 -36.5 281.5t-120 195t-208.5 76.5q-196 3 -294.5 -137t-98.5 -393z" />
<glyph unicode="1" horiz-adv-x="933" d="M123 0v68l303 21v997q-128 -46 -278 -85l-15 77q87 27 219 91t169 95l53 -15l-2 -1160l287 -21v-68h-736z" />
<glyph unicode="2" horiz-adv-x="1221" d="M140 1064q63 79 188.5 141t264.5 62q99 0 177 -29t124.5 -77.5t71 -108.5t24.5 -127q0 -141 -90 -295.5t-237 -290.5t-334 -249l640 34l89 174l67 -22l-65 -276h-896l-23 61q140 86 263 184.5t222 205.5t156.5 218.5t56.5 209.5q-2 123 -78 205t-215 82q-95 0 -199 -49 t-170 -114z" />
<glyph unicode="3" horiz-adv-x="1070" d="M68 1111q60 61 172.5 110.5t257.5 49.5q73 0 137.5 -18.5t118.5 -56.5t85.5 -102.5t31.5 -148.5q0 -119 -102.5 -239t-233.5 -160q203 10 312 -85t109 -247q0 -92 -39 -181.5t-110.5 -163t-174 -125.5t-229.5 -69t-276 7q0 12 -0.5 42t-0.5 43q145 -25 274.5 2.5 t216 90.5t136.5 149.5t50 179.5q0 149 -95 229t-295 66l-151 -34v104q204 33 329 132t127 217q2 132 -73 198.5t-200 66.5q-78 0 -149 -23.5t-106.5 -46.5t-78.5 -58z" />
<glyph unicode="4" horiz-adv-x="1253" d="M77 75q36 64 151.5 270.5t171 308t145.5 279.5t163 340h52l86 -64q-30 -63 -160 -292.5t-268.5 -472t-160.5 -282.5l-47 -74l581 25l3 509l132 37v-540l236 11v-130h-236v-376h-137l2 376h-689z" />
<glyph unicode="5" horiz-adv-x="1079" d="M128 566l79 671h563l28 19h87l-38 -143h-529l-73 -490q100 45 202.5 58.5t193.5 -7.5t162.5 -71.5t113.5 -138.5t42 -203q0 -106 -56 -215.5t-149.5 -197.5t-228.5 -143.5t-281 -55.5q-64 0 -108 14l1 74q114 -18 235 15.5t216.5 102t156.5 172t61 216.5q0 106 -36 181.5 t-97 114t-143.5 50.5t-175 -2t-191.5 -51z" />
<glyph unicode="6" horiz-adv-x="1251" d="M127 563q0 149 50.5 290.5t136 252.5t196.5 201t233.5 147t244.5 80l32 -66q-175 -50 -316.5 -142.5t-231 -206t-138.5 -238t-52 -247.5q-3 -115 17.5 -215.5t63.5 -182t118.5 -129t174.5 -47.5q87 0 156 40t109 102.5t61 132.5t21 137q0 189 -79.5 292t-195.5 103 q-138 0 -229 -72l-35 62q31 41 118.5 76t178.5 35q92 0 166.5 -38.5t120 -102t70 -140t24.5 -157.5q0 -78 -21.5 -156t-65 -149t-103 -126t-143 -87.5t-177.5 -32.5q-116 0 -212.5 47t-160 127.5t-98 186t-34.5 223.5z" />
<glyph unicode="7" horiz-adv-x="1236" d="M142 927l48 326h893l32 -36l-568 -1533l-151 53q38 82 79 174t71.5 161t78.5 183.5t69.5 165t77.5 188t69 169.5t77.5 192.5t72.5 179.5l-689 -17l-82 -214z" />
<glyph unicode="8" horiz-adv-x="1241" d="M129 373q0 122 90 235.5t242 183.5q-120 74 -187.5 164t-67.5 218q0 93 39.5 167.5t105 119.5t144 68.5t161.5 23.5q175 0 292 -96t117 -248q0 -118 -77 -239.5t-215 -193.5q65 -35 109 -61t95 -64t81.5 -74t51 -82.5t21.5 -97.5q1 -88 -27.5 -161t-77 -121t-114 -81 t-135.5 -47.5t-145 -14.5q-91 0 -177.5 24t-160.5 71t-119.5 126.5t-45.5 179.5zM269 407q0 -151 106 -253t282 -102q147 0 245.5 83.5t98.5 207.5q0 42 -13 79.5t-41.5 70t-57 57.5t-77.5 53.5t-84 47.5t-95 48.5t-93 47.5q-111 -44 -191 -138.5t-80 -201.5zM325 1198 q0 -43 13.5 -82t42 -73.5t58.5 -62.5t79 -59.5t86 -52.5t95 -52l-16 9q92 23 173.5 125.5t83.5 208.5q4 141 -78.5 229.5t-217.5 88.5q-134 0 -226.5 -80t-92.5 -199z" />
<glyph unicode="9" horiz-adv-x="1260" d="M122 703q0 78 21.5 156t65 149t103 126t143 87.5t177.5 32.5t174 -31t137 -85.5t97.5 -128.5t60 -160t19.5 -179q0 -194 -74.5 -382t-194 -329t-271.5 -238.5t-306 -125.5l-29 68q136 40 254.5 118t202 175t144.5 209t90.5 222.5t31.5 212.5q2 120 -15.5 218.5 t-57.5 180.5t-113 128t-174 46q-70 0 -129 -26.5t-98.5 -69t-67 -97t-40 -109.5t-12.5 -107q0 -185 80 -291t196 -106q75 0 135.5 22t92.5 49l35 -62q-40 -46 -122.5 -78.5t-173.5 -32.5q-92 0 -166.5 38.5t-120.5 102t-70.5 140t-24.5 157.5z" />
<glyph unicode=":" horiz-adv-x="706" d="M232 87q7 41 42 66t72 20q42 -5 59 -32.5t10 -64.5q-5 -43 -40 -67t-75 -19q-34 5 -54.5 32t-13.5 65zM232 897q7 41 42 66t72 20q42 -5 59 -32.5t10 -64.5q-5 -43 -40 -67t-75 -19q-34 5 -54.5 32t-13.5 65z" />
<glyph unicode=";" horiz-adv-x="706" d="M176 -407q76 27 140 119t64 200q0 88 -44.5 152.5t-103.5 73.5v36l81 105q68 -16 117 -69.5t69 -115t21 -123.5q1 -157 -92.5 -276.5t-216.5 -169.5l-35 44v24zM232 897q7 41 42 66t72 20q42 -5 59 -32.5t10 -64.5q-5 -43 -40 -67t-75 -19q-34 5 -54.5 32t-13.5 65z" />
<glyph unicode="&#x3c;" horiz-adv-x="1313" d="M138 701v101l969 515v-138l-839 -428l839 -425v-139z" />
<glyph unicode="=" horiz-adv-x="1229" d="M172 534v112h885v-112h-885zM172 942v111h885v-111h-885z" />
<glyph unicode="&#x3e;" horiz-adv-x="1313" d="M206 187v138l839 426l-839 427v139l969 -514v-101z" />
<glyph unicode="?" horiz-adv-x="1012" d="M130 1673v116q13 17 71.5 31t115.5 14q133 0 241.5 -39t178.5 -103.5t116 -147.5t62.5 -169.5t9.5 -172.5q0 -48 -46.5 -92t-114.5 -77t-137.5 -63.5t-123.5 -65t-63 -68.5q-4 -33 0 -67.5t17.5 -74.5t23.5 -65t32.5 -73.5t29.5 -65.5h-85q-48 42 -105 154.5t-56 187.5 q1 45 52.5 86.5t125.5 73.5t148.5 63t130 66.5t60.5 71.5q4 102 -36 196.5t-110 162.5t-166.5 109t-201.5 41q-113 0 -170 -29zM459 87q7 41 42 66t72 20q42 -5 59 -32.5t10 -64.5q-5 -43 -40 -67t-75 -19q-34 5 -54.5 32t-13.5 65z" />
<glyph unicode="@" horiz-adv-x="2133" d="M236 414q0 228 80 422.5t214.5 325t312 203.5t372.5 73q144 0 269 -43t217.5 -122t146 -198t53.5 -263q0 -158 -35 -290.5t-91.5 -220t-129 -148.5t-145 -88t-141.5 -27q-43 0 -67 53.5t-24 153.5q2 73 43 329q-36 -105 -84 -201t-104.5 -175t-122.5 -126t-129 -47 q-99 0 -176.5 112.5t-77.5 292.5q0 78 19 163.5t58.5 167.5t92.5 147.5t127.5 105.5t158.5 40q70 0 153.5 -18.5t135.5 -46.5q8 27 17.5 40t24.5 9l88 -29q-44 -176 -93 -620q-12 -107 -6 -182.5t29 -75.5q55 0 119 46.5t120 126t93.5 199.5t37.5 252q0 122 -34 221 t-93 165.5t-140.5 112t-174 65.5t-195.5 20q-128 0 -246.5 -37t-220.5 -111.5t-177.5 -178.5t-118.5 -246t-43 -306q0 -155 40 -280t108 -208.5t162.5 -139.5t199 -81t220.5 -25q106 0 211.5 24t163.5 55l28 -65q-65 -52 -196 -85t-262 -33q-170 0 -315 56t-249.5 158 t-164 251t-59.5 327zM738 486q0 -57 9.5 -113.5t28 -107.5t51 -82.5t73.5 -31.5q73 0 167.5 122t167 289t96.5 306q-34 29 -115 52t-144 23q-82 0 -147.5 -39.5t-105.5 -105.5t-60.5 -146t-20.5 -166z" />
<glyph unicode="A" horiz-adv-x="1493" d="M2 0v67l146 24l538 1470h121l523 -1470l165 -24v-67h-488v67l168 24l-127 364h-644l-126 -364l174 -24v-67h-450zM435 546h582l-214 613l-74 233z" />
<glyph unicode="B" horiz-adv-x="1419" d="M106 0v67l178 25v1370l-174 15v76h241q41 1 168 7q110 6 194 6h25q234 -1 360 -93.5t126 -255.5q0 -146 -76.5 -251.5t-228.5 -137.5q172 0 289.5 -100.5t117.5 -269.5q0 -214 -164 -343t-483 -129q-68 0 -196.5 7t-130.5 7h-246zM431 863q25 -4 69.5 -5.5t80 -1.5 t86 0.5t62.5 0.5q75 0 138.5 19.5t112.5 59t76.5 104t27.5 149.5q0 77 -30 135t-83.5 92t-119.5 50.5t-145 16.5q-210 0 -273 -15zM432 103q35 -13 124.5 -22t158.5 -9q71 0 134 10t123.5 35.5t103.5 65t69 102.5t26 144q0 335 -409 335q-281 0 -330 -4v-657z" />
<glyph unicode="C" horiz-adv-x="1410" d="M87 731q0 186 65.5 344.5t177 265t257.5 166.5t306 60q87 0 163 -12t161.5 -35t91.5 -24l-15 -276h-81l-38 180q-123 78 -326 78q-119 0 -227.5 -47t-194 -133.5t-136.5 -221.5t-51 -298q0 -147 40 -277.5t115 -230.5t192 -158q115 -57 256 -57h5q118 1 211 32t139 79 l44 169q10 0 34 -0.5t34 -0.5v-271q-33 -1 -103 -24t-175 -45t-230 -22q-153 0 -285.5 56.5t-227 156t-148.5 241t-54 305.5z" />
<glyph unicode="D" horiz-adv-x="1593" d="M106 0v67l180 25v1369l-176 16v76h249q81 0 203.5 6.5t180.5 6.5h4q371 0 561 -194q192 -195 192 -555q0 -193 -60 -350.5t-166.5 -262.5t-255.5 -161q-141 -53 -308 -53h-18q-43 0 -158 5.5t-173 5.5q-31 0 -128 -0.5t-127 -0.5zM434 100q141 -24 261 -24h18 q104 2 196.5 28.5t173 82t138.5 136t91 196.5t33 257q0 353 -168 532q-161 171 -453 171h-26q-168 -5 -264 -18v-1361z" />
<glyph unicode="E" horiz-adv-x="1319" d="M102 0v67l180 24v1370l-176 16v76h1037l29 -286h-85l-46 194l-612 11v-607l408 7l26 161h79v-424h-79l-26 167l-408 6v-698l658 16l91 233l74 -18l-45 -315h-1105z" />
<glyph unicode="F" horiz-adv-x="1238" d="M104 0v67l191 25v1369l-176 16v76h1059l22 -285l-78 -2l-46 190l-633 12v-634l463 8l33 156h76v-420h-85l-24 166l-464 7l1 -660l309 -18v-73h-648z" />
<glyph unicode="G" horiz-adv-x="1536" d="M86 731q0 187 64 345.5t173.5 264.5t255.5 165.5t310 59.5q84 0 162.5 -8.5t121 -18t97.5 -23.5t67 -17l-13 -273h-83l-40 177q-37 29 -133 53q-91 22 -214 22h-10q-118 -1 -226.5 -49t-193 -134.5t-135 -221t-50.5 -296.5q0 -112 21.5 -215.5t67.5 -196t113 -161 t165 -108.5t216 -40q106 0 211.5 25t158.5 72v465l-277 15v75h561v-75l-136 -17v-541q-30 -2 -122.5 -28.5t-211 -50.5t-224.5 -24q-203 0 -362.5 98t-246.5 271t-87 390z" />
<glyph unicode="H" horiz-adv-x="1706" d="M106 0v67l172 25v1370l-165 15v76h475v-76l-162 -15v-668h837v668l-164 15v76h470v-76l-158 -15v-1370l174 -25v-67h-492v67l170 24v612h-837v-612l170 -24v-67h-490z" />
<glyph unicode="I" horiz-adv-x="763" d="M136 0v67l169 24v1371l-166 15v76h482v-76l-168 -15v-1371l176 -24v-67h-493z" />
<glyph unicode="J" horiz-adv-x="720" d="M-86 -328q123 33 210.5 102.5t125.5 165.5q27 80 34.5 180t7.5 281v1061l-175 15v76h504v-76l-180 -15v-987q0 -18 1 -93v-62.5v-38.5q-1 -27 -2.5 -80.5t-5.5 -91.5t-11 -74q-23 -115 -96.5 -208t-169 -146t-200.5 -68z" />
<glyph unicode="K" horiz-adv-x="1419" d="M106 0v67l162 24v1372l-159 14v76h469v-76l-161 -14v-747l639 745l-160 16q0 11 -0.5 38t-0.5 38h461v-76l-159 -16l-502 -567q48 -51 182.5 -256t250.5 -374t145 -168l152 -29v-67h-261q-24 0 -97.5 106.5t-153 240.5t-168.5 269.5t-136 179.5l-192 -216v-490l177 -23 v-67h-488z" />
<glyph unicode="L" horiz-adv-x="1244" d="M106 0v67l180 25v1362l-176 15v84h519v-84l-195 -15l-1 -1368l605 19l108 245l68 -32l-65 -318h-1043z" />
<glyph unicode="M" horiz-adv-x="1977" d="M77 0v67l186 24l102 1364l-201 15v83h411l401 -1179l42 -139l44 142l380 1176h386v-83l-197 -15l118 -1364l194 -24v-67h-525v67l191 24l-88 1027l-14 340l-52 -191l-430 -1282h-53l-415 1174q-30 86 -103 300l-15 -395l-57 -972l213 -25v-67h-518z" />
<glyph unicode="N" horiz-adv-x="1662" d="M104 0v67l176 23v1364l-170 15v84h326l719 -1154l148 -271v1327l-174 15v83h456v-83l-173 -15v-1455h-162l-711 1112l-148 280q0 -155 -0.5 -653.5t-0.5 -647.5l206 -24v-67h-492z" />
<glyph unicode="O" horiz-adv-x="1554" d="M90 755q4 190 62 345t155.5 254.5t223.5 154t270 57.5h16q191 0 338 -94q153 -98 233 -276q76 -169 76 -383v-22q-4 -190 -59.5 -345.5t-149.5 -257t-217 -157.5t-264 -59h-16q-194 0 -346 94q-158 98 -242 279q-80 172 -80 389v21zM252 756q0 -198 64 -356.5t187 -251.5 t285 -93q232 0 373.5 199t141.5 536q0 194 -59 349.5t-178 249.5t-280 94q-238 0 -386 -193.5t-148 -533.5z" />
<glyph unicode="P" horiz-adv-x="1296" d="M86 0v67l201 25v1362l-179 15v84h250q33 0 158 6.5t198 6.5q121 0 212 -23t163 -75t109.5 -144.5t37.5 -223.5q0 -118 -49 -216t-131 -160q-80 -63 -184 -97q-101 -33 -209 -33h-6q-201 0 -222 -2v-500l276 -25v-67h-625zM435 685q71 -11 183 -11h36q94 1 170 24 t136.5 71t93.5 131.5t33 197.5q0 382 -407 382h-27q-162 -5 -218 -19v-776z" />
<glyph unicode="Q" horiz-adv-x="1554" d="M87 755q4 190 62 345t155 254.5t223.5 154t270.5 57.5h16q191 0 338 -94q152 -99 232 -276q76 -170 76 -383v-22q-7 -334 -163.5 -545t-402.5 -260q37 -108 140.5 -161t231.5 -53q113 0 167 41l15 -97q-19 -29 -83.5 -49.5t-146.5 -20.5q-152 0 -261 79t-151 249l-36 -2 h-16q-194 0 -346 94q-157 99 -241 279q-80 172 -80 389v21zM249 756q0 -198 64 -356.5t187 -251.5t285 -93q231 0 372.5 199t141.5 536q0 194 -59 349.5t-177.5 249.5t-279.5 94q-238 0 -386 -193.5t-148 -533.5z" />
<glyph unicode="R" horiz-adv-x="1419" d="M86 0v67l201 25v1362l-179 15v84h254q21 0 125.5 6.5t181.5 6.5q119 0 209.5 -20.5t162 -67t109 -129.5t37.5 -201q0 -155 -95.5 -272.5t-256.5 -162.5q2 -2 4 -2q53 -17 112 -85.5t109 -154.5t96 -170.5t85.5 -144.5t64.5 -65l122 -24v-67h-256q-21 0 -54.5 51.5 t-70 129t-84 167.5t-94.5 166.5t-103 125.5q-53 46 -104 46h-6l4 3q-47 -2 -225 -2v-596l217 -24v-67h-566zM435 777q61 -8 231 -8q179 2 273 97t94 264q0 180 -92 270q-85 84 -271 84q-14 0 -29 -1q-11 0 -40 -1t-46 -1.5t-41.5 -2t-44 -4.5t-34.5 -7v-690z" />
<glyph unicode="S" horiz-adv-x="1229" d="M154 63v299h73l47 -204q58 -54 154.5 -77.5t200.5 -23.5q67 0 128.5 16.5t114.5 50t84.5 93t31.5 138.5q0 38 -12.5 74t-30 64t-50.5 58t-61 50t-75.5 47t-78.5 43t-85 42q-56 28 -91 46t-86 47.5t-82.5 54t-67.5 59t-56 68.5t-34 78t-14 91q0 81 31 148t80.5 110.5 t114.5 74t130.5 43.5t129.5 13q251 0 384 -79v-267h-68l-59 199q-79 69 -260 69h-10q-57 0 -113.5 -16t-108 -48.5t-83 -90.5t-31.5 -133q0 -35 11 -68t28.5 -59.5t47 -53.5t57 -47t69.5 -44t74.5 -40t80.5 -39q51 -25 74 -36t71 -36.5t72 -40.5t63 -42t59.5 -48.5t47 -52 t39 -59.5t22 -65t9.5 -75q0 -107 -40.5 -188.5t-112.5 -130.5t-163.5 -73.5t-199.5 -24.5q-138 0 -273 28t-183 58z" />
<glyph unicode="T" horiz-adv-x="1270" d="M30 1249l25 304h1191l-2 -307l-65 -9l-41 215l-412 17v-1377l276 -25v-67h-686v67l262 25v1377l-416 -17l-61 -201z" />
<glyph unicode="U" horiz-adv-x="1576" d="M33 1477v76h476v-76l-174 -16v-819q0 -135 23.5 -238t64 -169t102 -107.5t130.5 -58.5t156 -17q431 0 431 611v797l-173 17v76h444v-76l-156 -17v-796q0 -183 -41 -318t-118.5 -216t-180.5 -119.5t-235 -38.5q-314 0 -455 164.5t-141 510.5v815z" />
<glyph unicode="V" horiz-adv-x="1425" d="M5 1477v76h506v-76l-198 -15l389 -1124l59 -189l52 190l343 1123l-167 15v75h438v-75l-143 -15l-490 -1482h-109l-542 1483z" />
<glyph unicode="W" horiz-adv-x="2101" d="M5 1476v77h498v-77l-198 -14l353 -1120l59 -186l55 178l240 947l-54 181l-165 14v77h512v-77l-191 -14l304 -1133l46 -179l47 204l294 1108l-182 14v77h466v-77l-159 -14l-430 -1482h-119l-313 1100l-300 -1100h-126l-501 1482z" />
<glyph unicode="X" horiz-adv-x="1420" d="M15 0v67l178 24l444 699l-423 673l-159 14v76h529v-77l-193 -14l345 -588l350 588l-172 15v76h459v-76l-150 -14l-432 -653l438 -719l179 -24v-67h-549v68l202 23l-374 622l-354 -623l202 -23v-67h-520z" />
<glyph unicode="Y" horiz-adv-x="1352" d="M12 1477v76h460v-77l-168 -14l351 -633l53 -107l49 108l320 631l-171 16v76h431v-76l-135 -22l-430 -818v-545l211 -25v-67h-561v67l203 25v548l-491 822z" />
<glyph unicode="Z" horiz-adv-x="1352" d="M98 70l890 1255l117 145l-784 -18l-77 -224l-83 13l29 313h1056l23 -67l-873 -1239l-127 -163l827 30l115 252l79 -18l-72 -348h-1096z" />
<glyph unicode="[" horiz-adv-x="855" d="M200 27v1461q0 138 30.5 179.5t134.5 41.5q93 0 252 -33q0 -10 -0.5 -33.5t-0.5 -33.5h-291v-1684l291 -2q0 -9 0.5 -33t0.5 -33q-152 -35 -271 -35q-89 0 -117.5 41t-28.5 164z" />
<glyph unicode="\" horiz-adv-x="816" d="M30 1599h137l552 -1962h-137z" />
<glyph unicode="]" horiz-adv-x="858" d="M238 -143q0 9 0.5 33t0.5 33l291 2v1684h-291q0 10 -0.5 33.5t-0.5 33.5q159 33 252 33q104 0 134 -41t30 -180v-1461q0 -123 -28.5 -164t-117.5 -41q-118 0 -270 35z" />
<glyph unicode="^" horiz-adv-x="1289" d="M172 564l396 967h149l400 -967q-20 0 -68.5 -0.5t-67.5 -0.5l-345 816l-343 -816q-17 0 -60 0.5t-61 0.5z" />
<glyph unicode="_" horiz-adv-x="1415" d="M-20 -192h1455v-112h-1455v112z" />
<glyph unicode="`" horiz-adv-x="884" d="M179 1661l106 109l313 -384l-42 -43q-302 203 -377 318z" />
<glyph unicode="a" horiz-adv-x="1145" d="M111 312q7 79 57.5 142.5t123 102t165.5 64t177.5 34.5t165.5 10v88q0 159 -73.5 221.5t-221.5 62.5q-74 0 -168 -27.5t-154 -62.5l-29 71q69 55 191.5 88t209.5 33q67 0 122 -9.5t106.5 -35t86 -66t55 -105.5t20.5 -150l-2 -702h132v-55q-71 -33 -173 -33 q-21 0 -34.5 2.5t-29 11.5t-23 29.5t-7.5 53.5v40q-125 -142 -360 -142q-68 0 -130 22.5t-110 63t-75 105.5q-23 55 -23 119q0 12 1 24zM258 307q0 -116 70 -174t193 -58q151 0 278 106q0 262 1 403q-71 0 -140 -7.5t-143.5 -27t-130.5 -49.5q-55 -28 -91 -78 q-37 -50 -37 -115z" />
<glyph unicode="b" horiz-adv-x="1264" d="M44 1525v68l280 30l35 -17v-586q167 133 353 133q70 0 133.5 -18.5t121.5 -60t99.5 -103.5t66.5 -156t25 -210q0 -175 -70.5 -319t-200.5 -229t-295 -85q-129 0 -241 26.5t-136 51.5v1450zM359 134q15 -39 86 -59t165 -20q78 0 148.5 32.5t128 94t92 162t35.5 226.5v8 q0 122 -28 214q-29 95 -81 149t-115 79.5t-136 25.5q-84 0 -164.5 -31t-130.5 -78v-803z" />
<glyph unicode="c" horiz-adv-x="1051" d="M106 541q0 267 152 433q154 166 390 175q15 1 31 1q69 0 137 -12q83 -14 121 -39v-214h-74l-41 128q-59 46 -186 46q-78 0 -148 -30t-124 -85.5t-85.5 -142.5t-32.5 -194v-8q0 -132 32 -233q34 -104 91.5 -164t125.5 -89t144 -29q74 0 165.5 21t135.5 55l27 -72 q-57 -51 -163 -80t-222 -29q-149 0 -257.5 73.5t-162.5 198.5q-56 127 -56 290z" />
<glyph unicode="d" horiz-adv-x="1269" d="M107 541q0 131 45 245.5t122.5 194.5t182.5 126t223 46q112 0 218 -41q5 -2 8 -3v388l-205 24v69l311 32l38 -20v-1531h136v-61q-31 -14 -85.5 -23.5t-97.5 -9.5q-45 0 -68.5 16.5t-23.5 72.5v29q-52 -46 -144.5 -82.5t-218.5 -36.5q-90 0 -168 34t-139.5 101 t-97.5 177.5t-36 252.5zM251 575v-17q0 -112 25 -200q27 -96 76 -155.5t113 -90.5t139 -31q62 0 114 11q115 23 188 91v800q-15 16 -28 26.5t-41 26t-72.5 23.5t-101.5 8q-76 0 -146.5 -29t-130.5 -86t-96.5 -154.5t-38.5 -222.5z" />
<glyph unicode="e" horiz-adv-x="1145" d="M103 556q0 257 154.5 424.5t394.5 171.5h9q167 0 268 -108q104 -110 108 -308q0 -11 1 -21q0 -65 -11 -141h-777v-11v-15q0 -112 29 -200q31 -94 87 -151.5t129 -87t158 -29.5q92 0 187 23.5t139 53.5l31 -69q-57 -51 -174 -81.5t-235 -30.5q-238 0 -368 156t-130 424z M253 664h631q3 35 3 66q0 234 -137 308q-57 31 -136 31q-143 0 -242.5 -105t-118.5 -300z" />
<glyph unicode="f" horiz-adv-x="837" d="M97 996v60l226 44v105q0 107 37.5 199.5t96 151.5t128 92.5t136.5 33.5q99 0 143 -17v-129q-50 29 -172 29q-47 0 -83 -12t-70 -43t-52.5 -94t-18.5 -155v-161h327v-104h-327v-912l241 -16v-68h-590v68l204 17v911h-226z" />
<glyph unicode="g" horiz-adv-x="1203" d="M127 -240q0 88 54.5 164.5t118.5 115.5q-30 12 -50.5 29t-30 31t-14.5 37.5t-5.5 34t-0.5 35.5q0 45 32 114t86 119q-174 97 -174 314q0 99 38.5 177.5t103.5 127t145 74.5t169 28h13q162 0 268 -73q48 45 177 45h119v-117q-129 0 -222 1q66 -92 66 -226 q0 -127 -62.5 -221.5t-162 -141.5t-220.5 -47q-118 0 -210 37q-36 -56 -36 -156q0 -69 34.5 -98.5t118.5 -33.5q40 -4 251 -4q107 0 184.5 -20t118 -48t64 -70.5t28.5 -75t5 -75.5q0 -170 -143 -269t-376 -99q-99 0 -182.5 15t-154 47.5t-110.5 91t-40 137.5zM268 -192 q0 -72 33.5 -124t90 -78t116 -37.5t126.5 -11.5q170 0 275.5 60.5t105.5 181.5q0 50 -12 84.5t-44 63.5t-95.5 43.5t-159.5 15.5l-170 1q-108 0 -176 15q-90 -84 -90 -214zM285 779q0 -142 80 -228t236 -86q132 0 204.5 75.5t72.5 224.5q0 314 -303 314q-60 0 -110.5 -16.5 t-91.5 -51t-64.5 -94t-23.5 -138.5z" />
<glyph unicode="h" horiz-adv-x="1404" d="M112 1520v69l276 34l39 -21l-1 -472l-3 -147q86 67 207 113t206 46q102 0 168 -28t105 -94t54 -164q14 -91 14 -230v-19v-522l155 -17v-68l-465 -1v69l165 17v464q0 110 -6 183t-22 134t-45 94.5t-75 51.5t-112 18q-77 0 -177.5 -31t-167.5 -80v-834l156 -17v-68h-452v68 l152 18v1410z" />
<glyph unicode="i" horiz-adv-x="683" d="M140 0v68l165 16v887l-144 50v51l245 61l38 -19v-1029l167 -17v-68h-471zM241 1512q0 48 36.5 81.5t80.5 33.5q49 0 74.5 -27.5t25.5 -70.5q0 -50 -36 -82t-82 -32q-40 0 -69.5 27t-29.5 70z" />
<glyph unicode="j" horiz-adv-x="650" d="M-10 -395q35 -11 110 -11q68 0 110.5 33.5t67.5 124.5t25 246v973l-151 50v51l254 60l39 -18v-1130q0 -235 -90.5 -367t-255.5 -132q-25 0 -63.5 4.5t-45.5 10.5v105zM238 1505q0 48 37 81.5t81 33.5q49 0 74 -27.5t25 -70.5q0 -50 -36 -82t-82 -32q-40 0 -69.5 26.5 t-29.5 70.5z" />
<glyph unicode="k" horiz-adv-x="1274" d="M107 1520v69l286 34l35 -21v-839l-4 -223l508 495l-150 12v82h439v-81l-155 -14l-372 -356l449 -593l147 -18v-67h-456v67l148 19l-376 518l-183 -172l5 -236v-111l155 -17v-68h-462v68l162 17v1411z" />
<glyph unicode="l" horiz-adv-x="698" d="M137 0v68l167 17v1411l-163 24v69l272 34l35 -21v-1518l176 -16v-68h-487z" />
<glyph unicode="m" horiz-adv-x="2070" d="M134 1021v52l238 60l36 -19v-138q75 60 198 110.5t222 52.5h12q100 0 162 -31q65 -33 99 -109q68 52 190.5 94.5t218.5 45.5h19q171 0 241 -101q74 -107 73 -377v-576l169 -18v-67h-456v67l143 18v551q0 88 -5.5 147.5t-21.5 110.5t-45 79.5t-75 43.5q-40 13 -95 13h-15 q-75 -2 -159.5 -30t-155.5 -69q24 -101 24 -260v-586l158 -18v-67h-455v67l153 19v569q0 86 -5.5 142.5t-20.5 105t-42.5 75t-71.5 40.5q-38 12 -91 11h-16q-73 -1 -164.5 -35t-168.5 -87v-257q0 -65 -0.5 -275.5t-0.5 -289.5l158 -18v-67h-445v67l142 19v882z" />
<glyph unicode="n" horiz-adv-x="1396" d="M133 1021v51l237 61l37 -19v-138q72 59 198 110.5t224 55.5h16q175 0 249 -102q77 -108 77 -377v-578l163 -17v-68h-461v68l154 17v560q0 217 -57 304q-54 82 -189 82h-16q-76 -3 -170 -37.5t-170 -86.5v-822l158 -17v-68h-446v68l143 18v882z" />
<glyph unicode="o" horiz-adv-x="1231" d="M104 581q2 129 45.5 237t116 180t167.5 112.5t201 41.5h6q98 0 180 -30q84 -30 140 -84t94 -128t56 -158q17 -79 17 -165v-10q-2 -263 -149.5 -431.5t-369.5 -169.5q-107 0 -193.5 33t-144 89.5t-96 134.5t-54.5 165q-16 82 -16 172v11zM258 590q0 -108 20.5 -200.5 t62.5 -166t112 -116t162 -44.5h10q165 1 255 127q92 130 93 378q0 105 -19.5 192.5t-60 157.5t-109 110.5t-160.5 41.5h-8q-166 0 -261 -125q-97 -128 -97 -355z" />
<glyph unicode="p" horiz-adv-x="1324" d="M121 -444l154 20v1392l-145 53v51l235 61l38 -20v-112q63 62 161.5 106.5t212.5 44.5q88 0 164 -31t139.5 -94.5t100 -174t36.5 -257.5q0 -172 -70.5 -313t-200.5 -224t-295 -83q-132 0 -236 47l4 -282v-166l230 -18v-67h-528v67zM418 931l1 -392v-388q24 -41 88.5 -66.5 t153.5 -26.5q80 0 152 30.5t130.5 91.5t93.5 164t36 235v8q0 116 -27 206q-28 93 -78 148.5t-113 83t-137 27.5q-164 0 -300 -121z" />
<glyph unicode="q" horiz-adv-x="1242" d="M104 543q0 170 74.5 309.5t209 220t300.5 80.5q142 0 237 -49l86 32l37 -15v-1540l146 -18v-74h-515v74l225 19v371l4 150q-148 -131 -364 -131q-37 0 -73.5 6t-81 22.5t-84 43t-77 71t-64.5 102.5t-43.5 141.5t-16.5 184.5zM247 566v-14q0 -224 91 -347 q95 -127 257 -127q111 0 189 32.5t120 74.5v802q-78 83 -241 83q-79 0 -151 -30.5t-131.5 -90.5t-95.5 -159t-38 -224z" />
<glyph unicode="r" horiz-adv-x="923" d="M106 0v68l176 19v881l-147 53v51l236 61l38 -19v-140q46 56 162 110.5t212 54.5q78 0 99 -7v-154q-71 27 -159 27q-157 -1 -296 -90v-828l303 -19v-68h-624z" />
<glyph unicode="s" horiz-adv-x="1048" d="M160 61v218h71l32 -136q90 -75 242 -82h22q113 1 187 47q80 52 81 158q0 26 -8 49.5t-19 41.5t-32.5 36t-39 30t-48.5 27t-51 24t-56.5 24.5t-55.5 23.5q-70 31 -118 58.5t-97 67.5q-48 42 -72 94q-24 50 -24 110q0 74 37 134q36 58 93.5 92.5t124 53t136.5 20.5h21 q80 0 159 -20q89 -22 133 -52v-201h-68l-34 125q-74 69 -204 69h-4q-116 1 -184 -51q-71 -54 -71 -145q0 -32 12 -60q13 -30 34 -51.5t55.5 -43.5t67 -38t79.5 -38l33 -15q133 -59 170 -80q143 -83 165 -204q4 -23 4 -49q0 -154 -118 -238t-307 -84q-195 0 -348 85z" />
<glyph unicode="t" horiz-adv-x="862" d="M112 1019v60q18 3 49 8.5t41.5 7.5t28.5 7t25 10.5t16 14t16 21.5q12 26 29.5 111t20.5 127h76v-270h375v-97h-375v-602q0 -207 23.5 -271t108.5 -64q64 0 130 22t98 43l25 -71q-42 -46 -135 -73t-171 -27q-112 0 -166.5 65t-54.5 214v764h-160z" />
<glyph unicode="u" horiz-adv-x="1292" d="M111 1037v60l215 42l30 -18v-689q0 -98 9 -158.5t35 -106.5t73 -65t122 -19q102 0 193.5 46t139.5 90v788l-125 22v64l239 45l29 -17v-1050h126v-61q-29 -13 -78 -23.5t-85 -10.5q-92 0 -92 76v90q-198 -163 -404 -163q-66 0 -116.5 13.5t-84.5 32.5t-57.5 57.5t-36 71.5 t-19 91.5t-8 100.5t-2.5 115v556z" />
<glyph unicode="v" horiz-adv-x="1188" d="M2 1038v81h418v-81l-145 -17l257 -626l94 -273l92 265l229 633l-143 17v82h385v-81l-117 -19l-411 -1043h-104l-446 1046z" />
<glyph unicode="w" horiz-adv-x="1692" d="M2 1037v82h422v-82l-158 -17l230 -737l39 -160l35 159l230 837h128l233 -836l44 -168l41 162l196 744l-137 16v82h385v-81l-129 -19l-302 -1044h-137l-236 811l-31 160l-41 -160l-226 -811h-125l-345 1046z" />
<glyph unicode="x" horiz-adv-x="1168" d="M4 1037v82h479v-82l-156 -14l221 -324l56 -83l51 81l224 327l-146 13v82h416v-82l-150 -16l-345 -461l356 -475l151 -17v-68h-481v68l159 16q-49 73 -101 148t-81.5 116t-30.5 43l-66 93l-46 -77l-222 -323l183 -16v-68h-457v68l149 18l345 459l-355 477z" />
<glyph unicode="y" horiz-adv-x="1150" d="M2 1037v82h450v-82l-165 -16l255 -699l91 -255l68 238l220 718l-164 14v82h414v-82l-124 -14q-307 -920 -359 -1055q-85 -216 -169.5 -330t-202.5 -143q-39 -10 -87 -10q-61 0 -79 15v123q35 -11 80 -13h5q39 0 77 14q42 16 89 53.5t92.5 114t80.5 183.5h-27l-421 1047z " />
<glyph unicode="z" horiz-adv-x="1078" d="M88 70l77 102l578 771l86 104l-574 -16l-48 -190h-72l2 278h840l23 -67l-640 -849l-100 -126l624 19l57 180q11 0 39 -0.5t39 -0.5l-17 -275h-885z" />
<glyph unicode="{" horiz-adv-x="1013" d="M90 729v97q54 15 107 35t101.5 50t48.5 55v524q0 138 30.5 179t134.5 41q31 0 58.5 -1.5t55.5 -6t44 -7.5t48 -9.5t45 -9.5q0 -10 -0.5 -33.5t-0.5 -33.5h-291v-640q0 -66 -79 -115q-38 -22 -157 -78q115 -54 171 -95q65 -50 65 -108v-648h291q0 -10 0.5 -34.5t0.5 -33.5 q-158 -35 -265 -35q-94 0 -122.5 42t-28.5 180v532q0 35 -88 82.5t-169 70.5z" />
<glyph unicode="|" horiz-adv-x="873" d="M358 -186v1966h131v-1966h-131z" />
<glyph unicode="}" horiz-adv-x="961" d="M198 -143q0 9 0.5 33.5t0.5 34.5h291v648q0 58 65 108q64 47 170 95q-125 59 -156 78q-79 49 -79 115v640h-291q0 10 -0.5 33.5t-0.5 33.5q12 2 44.5 9t49 10t44.5 7.5t55.5 6t58.5 1.5q104 0 134 -41t30 -179v-524q0 -25 48.5 -55t101.5 -50t107 -35v-97 q-81 -23 -169 -70.5t-88 -82.5v-532q0 -138 -28.5 -180t-122.5 -42q-107 0 -265 35z" />
<glyph unicode="~" horiz-adv-x="1257" d="M153 865q48 76 134 128.5t189 52.5q43 0 82.5 -19t70.5 -46t60.5 -54t63 -46t67.5 -19q48 0 94 20.5t71.5 42t59.5 55.5l56 -68q-49 -77 -135 -129.5t-189 -52.5q-52 0 -101 29t-82 63.5t-76.5 63.5t-84.5 29q-49 0 -95 -21t-70 -41.5t-60 -56.5z" />
<glyph />
<glyph unicode="&#xa1;" horiz-adv-x="713" d="M247 -398l53 1353h91l45 -1353h-189zM262 1339q7 41 42.5 66t72.5 20q42 -5 58.5 -32.5t9.5 -64.5q-5 -43 -40 -67t-75 -19q-34 5 -54 32t-14 65z" />
<glyph unicode="&#xa2;" horiz-adv-x="1114" d="M127 538q-1 253 136.5 417t354.5 190l15 217h98l-15 -213q172 -4 242 -50v-214h-74l-41 128q-59 46 -186 46q-78 0 -148 -30t-124 -85.5t-85.5 -142.5t-32.5 -194q-1 -137 32.5 -241t91 -164t125.5 -89t144 -29q74 0 165.5 21t135.5 55l27 -72q-56 -50 -158.5 -78.5 t-216.5 -30.5l-12 -195h-97l12 202q-184 30 -285.5 180t-103.5 372z" />
<glyph unicode="&#xa3;" horiz-adv-x="1441" d="M89 43q0 50 70.5 89t168.5 33q44 45 76.5 145t32.5 197v256h-199v111h199v112q0 247 132 409t344 166q170 4 270 -83l-72 -136q-6 10 -25.5 28t-52.5 41.5t-83.5 39.5t-104.5 15q-264 -6 -264 -477v-115h354v-111h-353v-87q0 -199 -41 -316t-118 -216q49 -2 190 -41 t197 -48q80 -9 141 -7t104.5 20.5t72.5 42t46 57t24 66t7 68.5q0 114 -91 176l67 129q137 -62 160 -235q6 -25 3.5 -55.5t-5.5 -63.5t-17.5 -67t-34 -66t-54 -59.5t-77 -48.5t-104.5 -32.5t-135 -11.5q-102 -4 -204 14t-165 41t-120 39.5t-84 11.5q-34 -46 -80 -75.5 t-92 -29.5q-83 0 -83 74z" />
<glyph unicode="&#xa4;" horiz-adv-x="1436" d="M235 1102l67 67l178 -178q102 78 231 78q138 0 245 -89l178 177l67 -67l-181 -181q71 -100 71 -219q0 -131 -80 -233l178 -176l-68 -67l-177 177q-104 -80 -233 -80q-126 0 -226 73l-177 -177l-67 67l175 176q-85 104 -85 240q0 132 81 234zM442 690q0 -116 79 -198.5 t190 -82.5t190 82.5t79 198.5t-79 198.5t-190 82.5t-190 -82.5t-79 -198.5z" />
<glyph unicode="&#xa5;" horiz-adv-x="1407" d="M25 1477v76h468v-77l-161 -14l316 -481l58 -117h23l67 123q33 57 151 247.5t141 227.5l-156 15v76h428v-76l-144 -24l-387 -589h381v-99h-437v-258h437v-99h-437v-316l214 -25v-67h-570v67l209 25v316h-444v99h444v258h-444v99h390l-409 597z" />
<glyph unicode="&#xa6;" horiz-adv-x="873" d="M358 -186v894h131v-894h-131zM358 886v894h131v-894h-131z" />
<glyph unicode="&#xa7;" horiz-adv-x="1327" d="M180 103h70l49 -200q63 -61 152 -81.5t201 -20.5q65 0 124 13.5t112.5 42.5t85.5 82.5t32 124.5q0 59 -28 108.5t-75.5 85.5t-108.5 68.5t-128.5 61.5t-135 58.5t-128.5 65.5t-108 77t-75 98t-28 125q0 89 33.5 172.5t86.5 138.5q-105 97 -105 228q0 84 32 153.5 t83.5 115.5t116.5 77.5t128.5 45.5t123.5 14q257 0 394 -80v-267h-69l-58 199q-70 67 -277 67q-41 0 -84.5 -9t-89 -31.5t-81 -55.5t-58 -85t-22.5 -116q0 -63 35 -116.5t92.5 -89.5t130.5 -72t149.5 -65.5t149.5 -69t130.5 -82.5t92.5 -106.5t35 -140.5q1 -91 -26.5 -178 t-73.5 -146q85 -88 85 -205q0 -81 -27 -147t-74.5 -111t-112.5 -75.5t-139.5 -44t-158.5 -13.5q-137 0 -271 28.5t-182 58.5v299zM329 840q0 -59 31.5 -109t81 -84.5t119.5 -69t136.5 -60.5t143.5 -62.5t130 -70.5q52 98 50 209q0 61 -30.5 113t-77.5 88t-115.5 72 t-132.5 62.5t-141 62.5t-129 69q-66 -95 -66 -220z" />
<glyph unicode="&#xa8;" horiz-adv-x="1004" d="M159 1518q0 45 36 78t80 33q49 0 74 -26.5t25 -68.5q0 -48 -35.5 -78.5t-81.5 -30.5q-40 0 -69 25.5t-29 67.5zM614 1518q0 45 36 78t80 33q49 0 74 -26.5t25 -68.5q0 -48 -35.5 -78.5t-81.5 -30.5q-40 0 -69 25.5t-29 67.5z" />
<glyph unicode="&#xa9;" horiz-adv-x="2032" d="M172 1069q0 171 67 328t180.5 271.5t269.5 182.5t327 68q170 0 326.5 -68t269.5 -182.5t180.5 -271.5t67.5 -328q0 -170 -67.5 -327t-180.5 -271.5t-269.5 -182.5t-326.5 -68q-171 0 -327 68t-269.5 182.5t-180.5 271.5t-67 327zM274 1069q0 -152 58.5 -291t157.5 -241 t237 -162.5t289 -60.5q202 0 373 102.5t270 276t99 376.5q0 152 -58.5 292t-158 241.5t-237 162t-288.5 60.5q-152 0 -289.5 -60.5t-236.5 -162t-157.5 -241.5t-58.5 -292zM577 1061q0 102 40.5 196t104 160.5t142.5 108t157 47.5q94 7 191 -9t126 -50v-193h-90l-40 129 q-59 39 -188 38q-133 -1 -218 -113t-85 -279q-1 -114 41.5 -206.5t127 -147.5t196.5 -55q70 0 142.5 26.5t100.5 53.5l23 -61q-45 -52 -133.5 -87t-190.5 -35q-215 0 -331 131t-116 346z" />
<glyph unicode="&#xaa;" horiz-adv-x="964" d="M91 972q0 58 22.5 104t65.5 76t95 50.5t120 31t131 14.5t138 4v41q0 65 -15.5 107t-49 63t-73 28.5t-100.5 7.5q-81 0 -155 -19.5t-114 -51.5l-30 69q44 40 143.5 68t196.5 28q80 0 134 -11t101.5 -41.5t70.5 -92.5t23 -156l-1 -476h87v-58q-21 -10 -66 -19t-75 -9 q-38 0 -55.5 15t-17.5 60v38q-28 -22 -47 -34t-60 -32.5t-96.5 -30.5t-122.5 -10q-39 0 -80.5 14t-80.5 41t-64 74.5t-25 106.5zM232 995q0 -72 43 -120.5t120 -48.5q86 0 157.5 25t109.5 62v268q-430 0 -430 -186z" />
<glyph unicode="&#xab;" horiz-adv-x="1897" d="M245 550v126l648 399l41 -67l-550 -392l550 -382l-41 -71zM953 550v126l648 399l41 -67l-550 -392l550 -382l-41 -71z" />
<glyph unicode="&#xac;" horiz-adv-x="1220" d="M172 754v99h876v-529h-125v430h-751z" />
<glyph unicode="&#xad;" horiz-adv-x="1229" d="M172 743v111h885v-111h-885z" />
<glyph unicode="&#xae;" horiz-adv-x="2032" d="M172 1069q0 171 67 328t180.5 271.5t269.5 182.5t327 68q170 0 326.5 -68t269.5 -182.5t180.5 -271.5t67.5 -328q0 -170 -67.5 -327t-180.5 -271.5t-269.5 -182.5t-326.5 -68q-171 0 -327 68t-269.5 182.5t-180.5 271.5t-67 327zM274 1069q0 -152 58.5 -291t157.5 -241 t237 -162.5t289 -60.5q202 0 373 102.5t270 276t99 376.5q0 152 -58.5 292t-158 241.5t-237 162t-288.5 60.5q-152 0 -289.5 -60.5t-236.5 -162t-157.5 -241.5t-58.5 -292zM634 594v66l101 25v773l-101 23v74h156q41 -1 111.5 2.5t142.5 4.5q166 0 253 -63.5t89 -174.5 q0 -39 -6.5 -73.5t-24.5 -71.5t-47 -66t-76.5 -52.5t-109.5 -34.5q49 -27 88.5 -74.5t64.5 -95t51.5 -91.5t62 -71.5t82.5 -27.5v-74h-118q-44 0 -78.5 25t-55 64t-43.5 88t-44 94.5t-57.5 86t-82.5 59.5h-37h-44.5h-39.5v-328l111 -21v-66h-348zM871 1090q56 -9 157 -7 q98 1 159 61t61 143q0 99 -62 147t-162 48q-97 0 -153 -11v-381z" />
<glyph unicode="&#xaf;" horiz-adv-x="909" d="M195 1472v117h531v-117h-531z" />
<glyph unicode="&#xb0;" horiz-adv-x="677" d="M20 1277q0 130 93.5 223t224.5 93q132 0 225.5 -92.5t93.5 -223.5q0 -130 -93.5 -223t-225.5 -93q-131 0 -224.5 93t-93.5 223zM114 1278q0 -94 66 -161.5t159 -67.5q97 0 160.5 66t63.5 163q0 93 -65.5 160t-158.5 67q-97 0 -161 -65t-64 -162z" />
<glyph unicode="&#xb1;" horiz-adv-x="1258" d="M172 738v118h242l161 -10l-6 166v248h120v-248l-9 -166l144 10h261v-118h-261l-144 7l9 -166v-258h-120v258l6 165l-161 -6h-242zM181 66v111h894v-111h-894z" />
<glyph unicode="&#xb2;" horiz-adv-x="1256" d="M143 1503q56 87 184 156.5t272 69.5q99 0 175.5 -25.5t118.5 -67t62.5 -88t19.5 -95.5q-1 -92 -48.5 -178.5t-140 -167t-199.5 -149t-257 -147.5l584 30l106 172l79 -32l-60 -261h-858l-33 86q102 52 209 119t213.5 149.5t174 171.5t67.5 162q0 103 -68 156t-177 53 q-96 0 -201 -50.5t-165 -131.5z" />
<glyph unicode="&#xb3;" horiz-adv-x="1145" d="M191 1583q53 43 153.5 82t204.5 47q164 14 259.5 -54.5t95.5 -178.5q0 -86 -62 -157t-181 -108q72 4 129.5 -12t92 -42.5t57.5 -63t31.5 -71t8.5 -68.5q0 -146 -126.5 -237t-337.5 -91q-147 0 -288 57v88q132 -49 281 -49q154 1 239 67t85 173q0 93 -74.5 142t-206.5 38 l-167 -34v94q96 16 165.5 41t108.5 57t58.5 62t30.5 67q10 36 0 77q-9 52 -68.5 80.5t-140.5 26.5q-78 -3 -170.5 -34t-139.5 -69z" />
<glyph unicode="&#xb4;" horiz-adv-x="884" d="M267 1386l313 384l106 -109q-71 -111 -376 -318z" />
<glyph unicode="&#xb6;" horiz-adv-x="1346" d="M118 1134q0 204 128 320t388 116q51 0 218 -8t211 -9h171v-78l-172 -25v-1359l155 -24v-67h-283l-2 1450q-26 1 -129.5 3t-121.5 1v-1454h-325v67l199 24v592q-437 0 -437 451z" />
<glyph unicode="&#xb7;" horiz-adv-x="647" d="M232 854q7 40 41.5 65t72.5 21q42 -5 59 -33t10 -65q-6 -43 -41 -67t-74 -18q-34 5 -54.5 32t-13.5 65z" />
<glyph unicode="&#xb8;" horiz-adv-x="615" d="M134 -506q0 12 0.5 41t0.5 40q67 -20 132 -20q171 0 171 130q0 63 -48 92.5t-131 29.5q-37 0 -62 -5q0 92 30 198h89q-11 -74 -6 -127q133 6 203.5 -49.5t70.5 -139.5q0 -96 -72 -151.5t-181 -59.5q-100 -4 -197 21z" />
<glyph unicode="&#xb9;" horiz-adv-x="1085" d="M197 1528q88 25 228.5 94t177.5 102l50 -15l-2 -901l275 -22v-68h-711v68l291 21v739q-198 -74 -294 -98z" />
<glyph unicode="&#xba;" horiz-adv-x="998" d="M96 1165q2 108 39.5 193t98 134.5t131 75t145.5 25.5q186 0 290 -115.5t102 -322.5q-1 -86 -27 -157.5t-67.5 -119t-96 -80.5t-111.5 -48t-114 -15q-174 -1 -283.5 114.5t-106.5 315.5zM242 1175q-1 -164 67 -262t178 -98q135 1 202 80t67 248q0 173 -65 272t-190 98 q-127 -1 -193 -90.5t-66 -247.5z" />
<glyph unicode="&#xbb;" horiz-adv-x="1897" d="M256 230l549 391l-549 383l40 71l648 -387v-126l-648 -399zM964 230l549 391l-549 383l41 71l648 -387v-126l-648 -399z" />
<glyph unicode="&#xbc;" horiz-adv-x="2626" d="M227 1528q88 25 228.5 94t177.5 102l50 -15l-2 -901l275 -22v-68h-711v68l291 21v739q-198 -74 -294 -98zM809 -313l728 2194l100 -29l-725 -2195zM1387 260l566 855l54 1l81 -74l-522 -708l-47 -68l480 26l2 291l132 19v-303l282 16l3 -129h-285v-366h-137l2 366h-573z " />
<glyph unicode="&#xbd;" horiz-adv-x="2626" d="M227 1528q88 25 228.5 94t177.5 102l50 -15l-2 -901l275 -22v-68h-711v68l291 21v739q-198 -74 -294 -98zM792 -322l729 2203l99 -25l-725 -2199zM1443 782q56 87 184 156.5t272 69.5q99 0 175.5 -25.5t118.5 -67t62.5 -88t20.5 -95.5q-1 -74 -34 -146t-88 -134 t-140 -126.5t-174 -118.5t-207 -117l581 30l106 172l79 -32l-60 -261h-858l-33 86q103 52 209.5 119t213.5 149.5t174.5 171.5t67.5 162q0 103 -68.5 156t-177.5 53q-96 0 -201 -50.5t-165 -131.5z" />
<glyph unicode="&#xbe;" horiz-adv-x="2681" d="M191 1583q53 43 153.5 82t204.5 47q164 14 259.5 -54.5t95.5 -178.5q0 -86 -62 -157t-181 -108q72 4 129.5 -12t92 -42.5t57.5 -63t31.5 -71t8.5 -68.5q0 -146 -126.5 -237t-337.5 -91q-147 0 -288 57v88q132 -49 281 -49q154 1 239 67t85 173q0 93 -74.5 142t-206.5 38 l-167 -34v94q96 16 165.5 41t108.5 57t58.5 62t30.5 67q10 36 0 77q-9 52 -68.5 80.5t-140.5 26.5q-78 -3 -170.5 -34t-139.5 -69zM815 -322l729 2203l99 -25l-725 -2199zM1387 260l565 855l55 1l80 -74l-521 -708l-48 -68l481 26l2 291l132 19v-303l282 16l2 -129h-284 v-366h-137l2 366h-573z" />
<glyph unicode="&#xbf;" horiz-adv-x="1009" d="M87 214q0 48 46 91.5t113.5 76.5t136.5 63.5t122.5 65t63.5 68.5q4 33 0 67.5t-18 75.5t-23.5 64.5t-33 74.5t-29.5 65h85q48 -43 105.5 -155t56.5 -187q-1 -45 -52 -86.5t-124.5 -73.5t-148 -63t-129.5 -66.5t-60 -71.5q-4 -103 35.5 -197.5t108.5 -162.5t165.5 -108.5 t201.5 -40.5q113 0 170 29v-116q-13 -17 -71.5 -31t-115.5 -14q-111 0 -205.5 27.5t-161.5 75t-117 109.5t-77.5 133.5t-38.5 143.5t-5 143zM362 1340q7 41 42 66t72 20q42 -5 59 -33t10 -65q-5 -43 -40 -67t-75 -18q-34 5 -54 32t-14 65z" />
<glyph unicode="&#xc0;" horiz-adv-x="1493" d="M2 0v67l146 24l538 1470h121l523 -1470l165 -24v-67h-488v67l168 24l-127 364h-644l-126 -364l174 -24v-67h-450zM388 1811l107 109l296 -269l-42 -43q-94 38 -193 93t-168 110zM435 546h582l-214 613l-74 233z" />
<glyph unicode="&#xc1;" horiz-adv-x="1493" d="M2 0v67l146 24l538 1470h121l523 -1470l165 -24v-67h-488v67l168 24l-127 364h-644l-126 -364l174 -24v-67h-450zM435 546h582l-214 613l-74 233zM698 1651l296 269l107 -109q-69 -55 -168 -110t-193 -93z" />
<glyph unicode="&#xc2;" horiz-adv-x="1493" d="M2 0v67l146 24l538 1470h121l523 -1470l165 -24v-67h-488v67l168 24l-127 364h-644l-126 -364l174 -24v-67h-450zM404 1654l269 266h146l269 -264l-70 -39l-273 200l-279 -200zM435 546h582l-214 613l-74 233z" />
<glyph unicode="&#xc3;" horiz-adv-x="1493" d="M2 0v67l146 24l538 1470h121l523 -1470l165 -24v-67h-488v67l168 24l-127 364h-644l-126 -364l174 -24v-67h-450zM350 1760q40 68 113 114t152 46q36 0 68 -15t56.5 -36t48 -42.5t50.5 -36.5t55 -15q105 0 191 98l42 -60q-40 -68 -112.5 -114t-150.5 -46q-36 0 -68 15 t-56.5 36.5t-48 43.5t-51 37t-55.5 15q-105 0 -192 -99zM435 546h582l-214 613l-74 233z" />
<glyph unicode="&#xc4;" horiz-adv-x="1493" d="M2 0v67l146 24l538 1470h121l523 -1470l165 -24v-67h-488v67l168 24l-127 364h-644l-126 -364l174 -24v-67h-450zM407 1785q0 46 36.5 79t80.5 33q48 0 73.5 -27t25.5 -68q0 -48 -35.5 -80t-81.5 -32q-40 0 -69.5 26t-29.5 69zM435 546h582l-214 613l-74 233zM864 1784 q0 46 36.5 79.5t80.5 33.5q49 0 74 -27t25 -69q0 -48 -35.5 -80t-81.5 -32q-40 0 -69.5 26.5t-29.5 68.5z" />
<glyph unicode="&#xc5;" horiz-adv-x="1493" d="M2 0v67l146 24l512 1400q-75 22 -121.5 78.5t-46.5 130.5q0 94 73.5 157t178.5 63t178.5 -62.5t73.5 -157.5q0 -73 -45.5 -129t-119.5 -79l499 -1401l165 -24v-67h-488v67l168 24l-127 364h-644l-126 -364l174 -24v-67h-450zM435 546h582l-214 613l-74 233zM586 1699 q0 -60 45.5 -98.5t112.5 -38.5q66 0 112 38t46 98q0 59 -46 97.5t-112 38.5t-112 -38.5t-46 -96.5z" />
<glyph unicode="&#xc6;" horiz-adv-x="1940" d="M2 0v67l138 24l589 1462h945l29 -285l-79 -2l-46 194l-673 11l185 -611l437 7l26 164h73v-420h-73l-26 161l-412 5l210 -692l369 13l90 226l68 -33l-45 -291h-824v67l179 24l-120 388h-625l-148 -388l183 -24v-67h-450zM451 570h562l-204 659l-39 176z" />
<glyph unicode="&#xc7;" horiz-adv-x="1410" d="M87 731q0 186 65.5 344.5t177 265t257.5 166.5t306 60q87 0 163 -12t161.5 -35t91.5 -24l-15 -276h-81l-38 180q-123 78 -326 78q-119 0 -227.5 -47t-194 -133.5t-136.5 -221.5t-51 -298q0 -147 40 -277.5t115 -231t192 -158t261 -56.5q118 1 211 32t139 79l44 169 q10 0 34 -0.5t34 -0.5v-271q-33 -1 -97.5 -22.5t-161.5 -43t-209 -24.5q-7 -52 -2 -100q133 6 203.5 -49.5t70.5 -139.5q0 -96 -72 -151.5t-181 -59.5q-100 -4 -197 21q0 12 0.5 41t0.5 40q67 -20 132 -20q171 0 171 130q0 63 -48 92.5t-131 29.5q-37 0 -62 -5q0 86 23 172 q-191 13 -342 112t-236 267.5t-85 377.5z" />
<glyph unicode="&#xc8;" horiz-adv-x="1319" d="M102 0v67l180 24v1370l-176 16v76h1037l29 -286h-85l-46 194l-612 11v-607l408 7l26 161h79v-424h-79l-26 167l-408 6v-698l658 16l91 233l74 -18l-45 -315h-1105zM364 1811l106 109l296 -269l-42 -43q-214 87 -360 203z" />
<glyph unicode="&#xc9;" horiz-adv-x="1319" d="M102 0v67l180 24v1370l-176 16v76h1037l29 -286h-85l-46 194l-612 11v-607l408 7l26 161h79v-424h-79l-26 167l-408 6v-698l658 16l91 233l74 -18l-45 -315h-1105zM673 1651l296 269l107 -109q-146 -116 -360 -203z" />
<glyph unicode="&#xca;" horiz-adv-x="1319" d="M102 0v67l180 24v1370l-176 16v76h1037l29 -286h-85l-46 194l-612 11v-607l408 7l26 161h79v-424h-79l-26 167l-408 6v-698l658 16l91 233l74 -18l-45 -315h-1105zM379 1654l269 266h146l270 -264l-70 -39l-273 200l-279 -200z" />
<glyph unicode="&#xcb;" horiz-adv-x="1319" d="M102 0v67l180 24v1370l-176 16v76h1037l29 -286h-85l-46 194l-612 11v-607l408 7l26 161h79v-424h-79l-26 167l-408 6v-698l658 16l91 233l74 -18l-45 -315h-1105zM382 1785q0 46 36.5 79t80.5 33q49 0 74.5 -27t25.5 -68q0 -48 -36 -80t-82 -32q-40 0 -69.5 26t-29.5 69 zM839 1784q0 46 37 79.5t81 33.5q49 0 74 -27t25 -69q0 -48 -36 -80t-82 -32q-40 0 -69.5 26.5t-29.5 68.5z" />
<glyph unicode="&#xcc;" horiz-adv-x="763" d="M25 1811l106 109l296 -269l-42 -43q-214 87 -360 203zM136 0v67l169 24v1371l-166 15v76h482v-76l-168 -15v-1371l176 -24v-67h-493z" />
<glyph unicode="&#xcd;" horiz-adv-x="763" d="M136 0v67l169 24v1371l-166 15v76h482v-76l-168 -15v-1371l176 -24v-67h-493zM334 1651l296 269l107 -109q-149 -117 -360 -203z" />
<glyph unicode="&#xce;" horiz-adv-x="763" d="M40 1654l269 266h146l270 -264l-70 -39l-273 200l-279 -200zM136 0v67l169 24v1371l-166 15v76h482v-76l-168 -15v-1371l176 -24v-67h-493z" />
<glyph unicode="&#xcf;" horiz-adv-x="763" d="M43 1785q0 46 36.5 79t80.5 33q49 0 74.5 -27t25.5 -68q0 -48 -36 -80t-82 -32q-40 0 -69.5 26t-29.5 69zM136 0v67l169 24v1371l-166 15v76h482v-76l-168 -15v-1371l176 -24v-67h-493zM500 1784q0 46 37 79.5t81 33.5q49 0 74 -27t25 -69q0 -48 -36 -80t-82 -32 q-40 0 -69.5 26.5t-29.5 68.5z" />
<glyph unicode="&#xd0;" horiz-adv-x="1593" d="M97 759v111h189v591l-176 16v76h249q81 0 203.5 6.5t180.5 6.5q374 1 565.5 -194t191.5 -555q0 -193 -60 -350.5t-166.5 -262.5t-255.5 -161t-326 -53q-43 0 -158 5.5t-173 5.5q-31 0 -128 -0.5t-127 -0.5v67l180 25v667h-189zM434 100q152 -26 279 -24q104 2 196.5 28.5 t173 82t138.5 136t91 196.5t33 257q0 353 -168 532t-479 171q-168 -5 -264 -18v-591h273v-111h-273v-659z" />
<glyph unicode="&#xd1;" horiz-adv-x="1662" d="M104 0v67l176 23v1364l-170 15v84h326l719 -1154l148 -271v1327l-174 15v83h456v-83l-173 -15v-1455h-162l-711 1112l-148 280q0 -155 -0.5 -653.5t-0.5 -647.5l206 -24v-67h-492zM443 1760q41 68 114 114t151 46q36 0 68 -15t56.5 -36t48 -42.5t50.5 -36.5t55 -15 q106 0 192 98l41 -60q-39 -67 -112 -113.5t-151 -46.5q-36 0 -68 15t-56.5 36.5t-48 43.5t-50.5 37t-55 15q-107 0 -192 -99z" />
<glyph unicode="&#xd2;" horiz-adv-x="1554" d="M90 755q4 190 62 345t155.5 254.5t223.5 154t270 57.5q201 4 354 -94.5t233 -276t76 -404.5q-4 -190 -59.5 -345.5t-149.5 -257t-217 -157.5t-264 -59q-204 -4 -362 94.5t-242 278.5t-80 410zM252 756q0 -198 64 -356.5t187 -251.5t285 -93q232 0 373.5 199t141.5 536 q0 194 -59 349.5t-178 249.5t-280 94q-238 0 -386 -193.5t-148 -533.5zM435 1811l107 109l296 -269l-43 -43q-211 86 -360 203z" />
<glyph unicode="&#xd3;" horiz-adv-x="1554" d="M90 755q4 190 62 345t155.5 254.5t223.5 154t270 57.5q201 4 354 -94.5t233 -276t76 -404.5q-4 -190 -59.5 -345.5t-149.5 -257t-217 -157.5t-264 -59q-204 -4 -362 94.5t-242 278.5t-80 410zM252 756q0 -198 64 -356.5t187 -251.5t285 -93q232 0 373.5 199t141.5 536 q0 194 -59 349.5t-178 249.5t-280 94q-238 0 -386 -193.5t-148 -533.5zM745 1651l296 269l106 -109q-146 -116 -360 -203z" />
<glyph unicode="&#xd4;" horiz-adv-x="1554" d="M90 755q4 190 62 345t155.5 254.5t223.5 154t270 57.5q201 4 354 -94.5t233 -276t76 -404.5q-4 -190 -59.5 -345.5t-149.5 -257t-217 -157.5t-264 -59q-204 -4 -362 94.5t-242 278.5t-80 410zM252 756q0 -198 64 -356.5t187 -251.5t285 -93q232 0 373.5 199t141.5 536 q0 194 -59 349.5t-178 249.5t-280 94q-238 0 -386 -193.5t-148 -533.5zM451 1654l269 266h146l269 -264l-70 -39l-273 200l-279 -200z" />
<glyph unicode="&#xd5;" horiz-adv-x="1554" d="M90 755q4 190 62 345t155.5 254.5t223.5 154t270 57.5q201 4 354 -94.5t233 -276t76 -404.5q-4 -190 -59.5 -345.5t-149.5 -257t-217 -157.5t-264 -59q-204 -4 -362 94.5t-242 278.5t-80 410zM252 756q0 -198 64 -356.5t187 -251.5t285 -93q232 0 373.5 199t141.5 536 q0 194 -59 349.5t-178 249.5t-280 94q-238 0 -386 -193.5t-148 -533.5zM397 1760q40 68 113 114t152 46q36 0 68 -15t56.5 -36t47.5 -42.5t50 -36.5t55 -15q106 0 192 98l42 -60q-40 -67 -113 -113.5t-150 -46.5q-36 0 -68 15t-56.5 36.5t-48 43.5t-51 37t-55.5 15 q-105 0 -192 -99z" />
<glyph unicode="&#xd6;" horiz-adv-x="1554" d="M90 755q4 190 62 345t155.5 254.5t223.5 154t270 57.5q201 4 354 -94.5t233 -276t76 -404.5q-4 -190 -59.5 -345.5t-149.5 -257t-217 -157.5t-264 -59q-204 -4 -362 94.5t-242 278.5t-80 410zM252 756q0 -198 64 -356.5t187 -251.5t285 -93q232 0 373.5 199t141.5 536 q0 194 -59 349.5t-178 249.5t-280 94q-238 0 -386 -193.5t-148 -533.5zM453 1785q0 46 37 79t81 33q48 0 73.5 -27t25.5 -68q0 -48 -36 -80t-82 -32q-40 0 -69.5 26t-29.5 69zM911 1784q0 46 36.5 79.5t80.5 33.5q49 0 74 -27t25 -69q0 -48 -35.5 -80t-81.5 -32 q-40 0 -69.5 26.5t-29.5 68.5z" />
<glyph unicode="&#xd7;" horiz-adv-x="1241" d="M190 456l354 340l-354 341l90 95l339 -360l341 360l90 -95l-354 -341l354 -340l-90 -95l-341 359l-339 -359z" />
<glyph unicode="&#xd8;" horiz-adv-x="1554" d="M90 755q4 190 62 345t155.5 254.5t223.5 154t270 57.5q124 1 230 -35l55 159l68 -27l-55 -161q175 -87 272 -274.5t93 -436.5q-4 -190 -59.5 -345.5t-149.5 -257t-217 -157.5t-264 -59q-104 -1 -197 23l-63 -187l-72 26l63 185q-197 80 -308.5 276t-106.5 460zM252 756 q0 -216 77 -384.5t215 -251.5l451 1314q-96 49 -209 49q-238 0 -386 -193.5t-148 -533.5zM613 87q81 -32 175 -32q232 0 373.5 199t141.5 536q0 198 -63 357.5t-181 246.5z" />
<glyph unicode="&#xd9;" horiz-adv-x="1576" d="M33 1477v76h476v-76l-174 -16v-819q0 -135 23.5 -238t64 -169t102 -107.5t130.5 -58.5t156 -17q431 0 431 611v797l-173 17v76h444v-76l-156 -17v-796q0 -183 -41 -318t-118.5 -216t-180.5 -119.5t-235 -38.5q-314 0 -455 164.5t-141 510.5v815zM439 1811l106 109 l296 -269l-42 -43q-214 87 -360 203z" />
<glyph unicode="&#xda;" horiz-adv-x="1576" d="M33 1477v76h476v-76l-174 -16v-819q0 -135 23.5 -238t64 -169t102 -107.5t130.5 -58.5t156 -17q431 0 431 611v797l-173 17v76h444v-76l-156 -17v-796q0 -183 -41 -318t-118.5 -216t-180.5 -119.5t-235 -38.5q-314 0 -455 164.5t-141 510.5v815zM749 1651l295 269 l107 -109q-146 -116 -360 -203z" />
<glyph unicode="&#xdb;" horiz-adv-x="1576" d="M33 1477v76h476v-76l-174 -16v-819q0 -135 23.5 -238t64 -169t102 -107.5t130.5 -58.5t156 -17q431 0 431 611v797l-173 17v76h444v-76l-156 -17v-796q0 -183 -41 -318t-118.5 -216t-180.5 -119.5t-235 -38.5q-314 0 -455 164.5t-141 510.5v815zM454 1654l269 266h146 l270 -264l-70 -39l-273 200l-279 -200z" />
<glyph unicode="&#xdc;" horiz-adv-x="1576" d="M33 1477v76h476v-76l-174 -16v-819q0 -135 23.5 -238t64 -169t102 -107.5t130.5 -58.5t156 -17q431 0 431 611v797l-173 17v76h444v-76l-156 -17v-796q0 -183 -41 -318t-118.5 -216t-180.5 -119.5t-235 -38.5q-314 0 -455 164.5t-141 510.5v815zM457 1785q0 46 37 79 t81 33q48 0 73.5 -27t25.5 -68q0 -48 -36 -80t-82 -32q-40 0 -69.5 26t-29.5 69zM914 1784q0 46 37 79.5t81 33.5q49 0 74 -27t25 -69q0 -48 -36 -80t-82 -32q-40 0 -69.5 26.5t-29.5 68.5z" />
<glyph unicode="&#xdd;" horiz-adv-x="1352" d="M12 1477v76h460v-77l-168 -14l351 -633l53 -107l49 108l320 631l-171 16v76h431v-76l-135 -22l-430 -818v-545l211 -25v-67h-561v67l203 25v548l-491 822zM656 1651l296 269l107 -109q-69 -55 -168 -110t-193 -93z" />
<glyph unicode="&#xde;" horiz-adv-x="1296" d="M86 0v67l201 25v1371l-165 14v76h482v-76l-169 -15v-235q19 2 77 9.5t105 12t89 4.5q118 0 213 -25t167 -76.5t111 -137t39 -199.5q0 -118 -49 -213.5t-131 -155t-184.5 -91t-214.5 -30.5q-49 0 -93.5 1.5t-80 3.5t-48.5 2v-240l276 -25v-67h-625zM435 418 q86 -14 219 -14q93 1 168.5 23.5t136.5 69.5t94.5 127t33.5 189q0 177 -112.5 269t-329.5 85q-105 -5 -210 -31v-718z" />
<glyph unicode="&#xdf;" horiz-adv-x="1334" d="M67 0v67l157 26v779q0 143 29.5 260.5t80.5 199t120.5 137t147.5 81.5t164 26q46 0 88 -8t84 -28.5t72 -52t49 -83t19 -116.5q0 -66 -20.5 -123.5t-50 -98t-59.5 -79t-50.5 -85t-20.5 -96.5q0 -42 24 -75.5t62 -58t84 -48t91.5 -51t83.5 -61.5t62 -85.5t24 -116.5 q0 -85 -33 -150t-91.5 -103.5t-131.5 -58t-158 -19.5q-142 0 -221 19v134q47 -24 114 -44.5t120 -20.5q75 0 132 19t95 68.5t38 126.5q0 56 -32 101.5t-80 74t-104.5 59.5t-104.5 59.5t-80 74t-32 101.5q0 41 21.5 89t52 93.5t61 92.5t52 102.5t21.5 108.5 q0 110 -56.5 178.5t-163.5 68.5q-68 0 -121.5 -18.5t-99 -62.5t-75 -113.5t-46 -174.5t-16.5 -243v-872h-302z" />
<glyph unicode="&#xe0;" horiz-adv-x="1145" d="M111 312q7 79 57.5 142.5t123 102t165.5 64t177.5 35t165.5 9.5v88q0 159 -73.5 221.5t-221.5 62.5q-74 0 -168 -27.5t-154 -62.5l-29 71q69 55 191.5 88t209.5 33q67 0 122 -9.5t106.5 -35t86 -66t55 -105.5t20.5 -150l-2 -702h132v-55q-71 -33 -173 -33 q-21 0 -34.5 2.5t-29 11.5t-23 29.5t-7.5 53.5v40q-125 -142 -360 -142q-68 0 -130 22.5t-110 63t-75 105.5t-22 143zM258 310q-1 -119 69.5 -177t193.5 -58q151 0 278 106q0 262 1 403q-71 0 -140 -7.5t-143.5 -27t-130 -49t-91.5 -79t-37 -111.5zM291 1661l106 109 l313 -384l-43 -43q-302 205 -376 318z" />
<glyph unicode="&#xe1;" horiz-adv-x="1145" d="M111 312q7 79 57.5 142.5t123 102t165.5 64t177.5 35t165.5 9.5v88q0 159 -73.5 221.5t-221.5 62.5q-74 0 -168 -27.5t-154 -62.5l-29 71q69 55 191.5 88t209.5 33q67 0 122 -9.5t106.5 -35t86 -66t55 -105.5t20.5 -150l-2 -702h132v-55q-71 -33 -173 -33 q-21 0 -34.5 2.5t-29 11.5t-23 29.5t-7.5 53.5v40q-125 -142 -360 -142q-68 0 -130 22.5t-110 63t-75 105.5t-22 143zM258 310q-1 -119 69.5 -177t193.5 -58q151 0 278 106q0 262 1 403q-71 0 -140 -7.5t-143.5 -27t-130 -49t-91.5 -79t-37 -111.5zM450 1386l313 384 l106 -109q-71 -111 -376 -318z" />
<glyph unicode="&#xe2;" horiz-adv-x="1145" d="M111 312q7 79 57.5 142.5t123 102t165.5 64t177.5 35t165.5 9.5v88q0 159 -73.5 221.5t-221.5 62.5q-74 0 -168 -27.5t-154 -62.5l-29 71q69 55 191.5 88t209.5 33q67 0 122 -9.5t106.5 -35t86 -66t55 -105.5t20.5 -150l-2 -702h132v-55q-71 -33 -173 -33 q-21 0 -34.5 2.5t-29 11.5t-23 29.5t-7.5 53.5v40q-125 -142 -360 -142q-68 0 -130 22.5t-110 63t-75 105.5t-22 143zM217 1373l281 399h142l273 -398l-67 -37l-277 306l-291 -306zM258 310q-1 -119 69.5 -177t193.5 -58q151 0 278 106q0 262 1 403q-71 0 -140 -7.5 t-143.5 -27t-130 -49t-91.5 -79t-37 -111.5z" />
<glyph unicode="&#xe3;" horiz-adv-x="1145" d="M111 312q7 79 57.5 142.5t123 102t165.5 64t177.5 35t165.5 9.5v88q0 159 -73.5 221.5t-221.5 62.5q-74 0 -168 -27.5t-154 -62.5l-29 71q69 55 191.5 88t209.5 33q67 0 122 -9.5t106.5 -35t86 -66t55 -105.5t20.5 -150l-2 -702h132v-55q-71 -33 -173 -33 q-21 0 -34.5 2.5t-29 11.5t-23 29.5t-7.5 53.5v40q-125 -142 -360 -142q-68 0 -130 22.5t-110 63t-75 105.5t-22 143zM172 1498q41 69 114.5 116.5t150.5 47.5q36 0 68 -15.5t56.5 -38t48 -44.5t50.5 -37.5t55 -15.5q95 0 192 107l41 -59q-40 -69 -112.5 -117t-150.5 -48 q-43 0 -83.5 24t-66 52t-60.5 52t-69 24q-98 0 -192 -107zM258 310q-1 -119 69.5 -177t193.5 -58q151 0 278 106q0 262 1 403q-71 0 -140 -7.5t-143.5 -27t-130 -49t-91.5 -79t-37 -111.5z" />
<glyph unicode="&#xe4;" horiz-adv-x="1145" d="M111 312q7 79 57.5 142.5t123 102t165.5 64t177.5 35t165.5 9.5v88q0 159 -73.5 221.5t-221.5 62.5q-74 0 -168 -27.5t-154 -62.5l-29 71q69 55 191.5 88t209.5 33q67 0 122 -9.5t106.5 -35t86 -66t55 -105.5t20.5 -150l-2 -702h132v-55q-71 -33 -173 -33 q-21 0 -34.5 2.5t-29 11.5t-23 29.5t-7.5 53.5v40q-125 -142 -360 -142q-68 0 -130 22.5t-110 63t-75 105.5t-22 143zM231 1518q0 45 36 78t80 33q49 0 74 -26.5t25 -68.5q0 -48 -36 -78.5t-82 -30.5q-40 0 -68.5 25t-28.5 68zM258 310q-1 -119 69.5 -177t193.5 -58 q151 0 278 106q0 262 1 403q-71 0 -140 -7.5t-143.5 -27t-130 -49t-91.5 -79t-37 -111.5zM685 1518q0 45 36 78t80 33q49 0 74.5 -26.5t25.5 -68.5q0 -48 -36 -78.5t-82 -30.5q-40 0 -69 25.5t-29 67.5z" />
<glyph unicode="&#xe5;" horiz-adv-x="1145" d="M111 312q7 79 57.5 142.5t123 102t165.5 64t177.5 35t165.5 9.5v88q0 159 -73.5 221.5t-221.5 62.5q-74 0 -168 -27.5t-154 -62.5l-29 71q69 55 191.5 88t209.5 33q67 0 122 -9.5t106.5 -35t86 -66t55 -105.5t20.5 -150l-2 -702h132v-55q-71 -33 -173 -33 q-21 0 -34.5 2.5t-29 11.5t-23 29.5t-7.5 53.5v40q-125 -142 -360 -142q-68 0 -130 22.5t-110 63t-75 105.5t-22 143zM258 310q-1 -119 69.5 -177t193.5 -58q151 0 278 106q0 262 1 403q-71 0 -140 -7.5t-143.5 -27t-130 -49t-91.5 -79t-37 -111.5zM301 1556 q0 97 72.5 166.5t173.5 69.5t173 -69t72 -167t-72 -167t-173 -69q-102 0 -174 69t-72 167zM394 1555q0 -65 44.5 -108.5t107.5 -43.5q64 0 108.5 43.5t44.5 108.5q0 64 -44.5 107t-108.5 43q-63 0 -107.5 -43.5t-44.5 -106.5z" />
<glyph unicode="&#xe6;" horiz-adv-x="1810" d="M111 314q6 81 59.5 145.5t130 102.5t170 62.5t175 32.5t149.5 5v91q0 84 -20 141t-60 87.5t-88.5 43t-115.5 12.5q-72 0 -167 -27.5t-163 -67.5l-25 76q66 51 189 86t218 35q64 0 114.5 -9.5t98.5 -33t81.5 -69t50.5 -112.5q66 112 174 174t248 63q168 3 268 -107 t105 -309q2 -60 -10 -162h-753q-6 -244 109 -370t303 -126q81 0 169.5 24.5t130.5 54.5l31 -69q-52 -51 -163 -82t-221 -31q-301 0 -421 241q-44 -108 -166 -173t-274 -65q-65 0 -125 22.5t-107 64t-73.5 106.5t-21.5 143zM257 311q0 -116 68 -176t186 -60q103 0 182.5 55.5 t100.5 141.5q0 41 0.5 155.5t0.5 156.5q-58 1 -123.5 -5t-141 -25t-135 -48.5t-99 -80t-39.5 -114.5zM942 664h607q19 297 -135 377q-51 28 -122 28q-144 0 -239 -105.5t-111 -299.5z" />
<glyph unicode="&#xe7;" horiz-adv-x="1051" d="M106 538q-1 269 152.5 435.5t389.5 175.5q85 3 168 -10.5t121 -39.5v-214h-74l-41 128q-59 46 -186 46q-78 0 -148 -30t-124 -85.5t-85.5 -142.5t-32.5 -194q-1 -137 32.5 -241t91 -164t125.5 -89t144 -29q74 0 165.5 21t135.5 55l27 -72q-52 -46 -145 -74.5t-200 -33.5 q-8 -64 -3 -107q133 6 203.5 -49.5t70.5 -139.5q0 -96 -72 -151.5t-181 -59.5q-101 -4 -197 21v81q69 -20 132 -20q33 0 59 4.5t54 16.5t43.5 40t15.5 69q0 63 -48 92.5t-131 29.5q-38 0 -63 -5q2 92 25 180q-199 18 -310.5 170.5t-113.5 385.5z" />
<glyph unicode="&#xe8;" horiz-adv-x="1145" d="M103 556q0 257 154.5 424.5t394.5 171.5q173 3 277 -107.5t108 -308.5q2 -74 -10 -162h-777v-11q-2 -121 29 -215t87 -151.5t129 -87t158 -29.5q92 0 187 23.5t139 53.5l31 -69q-57 -51 -174 -81.5t-235 -30.5q-238 0 -368 156t-130 424zM253 664h631q21 291 -134 374 q-57 31 -136 31q-143 0 -242.5 -105t-118.5 -300zM329 1661l107 109l313 -384l-43 -43q-302 204 -377 318z" />
<glyph unicode="&#xe9;" horiz-adv-x="1145" d="M103 556q0 257 154.5 424.5t394.5 171.5q173 3 277 -107.5t108 -308.5q2 -74 -10 -162h-777v-11q-2 -121 29 -215t87 -151.5t129 -87t158 -29.5q92 0 187 23.5t139 53.5l31 -69q-57 -51 -174 -81.5t-235 -30.5q-238 0 -368 156t-130 424zM253 664h631q21 291 -134 374 q-57 31 -136 31q-143 0 -242.5 -105t-118.5 -300zM489 1386l313 384l106 -109q-71 -111 -376 -318z" />
<glyph unicode="&#xea;" horiz-adv-x="1145" d="M103 556q0 257 154.5 424.5t394.5 171.5q173 3 277 -107.5t108 -308.5q2 -74 -10 -162h-777v-11q-2 -121 29 -215t87 -151.5t129 -87t158 -29.5q92 0 187 23.5t139 53.5l31 -69q-57 -51 -174 -81.5t-235 -30.5q-238 0 -368 156t-130 424zM253 664h631q21 291 -134 374 q-57 31 -136 31q-143 0 -242.5 -105t-118.5 -300zM256 1373l281 399h142l273 -398l-67 -37l-278 306l-290 -306z" />
<glyph unicode="&#xeb;" horiz-adv-x="1145" d="M103 556q0 257 154.5 424.5t394.5 171.5q173 3 277 -107.5t108 -308.5q2 -74 -10 -162h-777v-11q-2 -121 29 -215t87 -151.5t129 -87t158 -29.5q92 0 187 23.5t139 53.5l31 -69q-57 -51 -174 -81.5t-235 -30.5q-238 0 -368 156t-130 424zM253 664h631q21 291 -134 374 q-57 31 -136 31q-143 0 -242.5 -105t-118.5 -300zM269 1518q0 45 36 78t80 33q49 0 74.5 -26.5t25.5 -68.5q0 -48 -36 -78.5t-82 -30.5q-40 0 -69 25.5t-29 67.5zM724 1518q0 45 36 78t80 33q49 0 74.5 -26.5t25.5 -68.5q0 -48 -36 -78.5t-82 -30.5q-40 0 -69 25.5t-29 67.5 z" />
<glyph unicode="&#xec;" horiz-adv-x="683" d="M84 1661l107 109l312 -384l-42 -43q-302 203 -377 318zM140 0v68l165 16v887l-144 50v51l245 61l38 -19v-1029l167 -17v-68h-471z" />
<glyph unicode="&#xed;" horiz-adv-x="683" d="M140 0v68l165 16v887l-144 50v51l245 61l38 -19v-1029l167 -17v-68h-471zM244 1386l313 384l106 -109q-72 -113 -377 -318z" />
<glyph unicode="&#xee;" horiz-adv-x="683" d="M11 1373l281 399h142l273 -398l-68 -37l-277 306l-290 -306zM140 0v68l165 16v887l-144 50v51l245 61l38 -19v-1029l167 -17v-68h-471z" />
<glyph unicode="&#xef;" horiz-adv-x="683" d="M24 1518q0 45 36 78t80 33q49 0 74 -26.5t25 -68.5q0 -48 -35.5 -78.5t-81.5 -30.5q-40 0 -69 25.5t-29 67.5zM140 0v68l165 16v887l-144 50v51l245 61l38 -19v-1029l167 -17v-68h-471zM479 1518q0 45 36 78t80 33q49 0 74 -26.5t25 -68.5q0 -48 -35.5 -78.5t-81.5 -30.5 q-40 0 -69 25.5t-29 67.5z" />
<glyph unicode="&#xf0;" horiz-adv-x="1231" d="M100 502q0 128 41.5 230.5t113 167t163.5 98.5t197 34q99 0 198.5 -44t152.5 -112q-33 168 -127 310t-221 247l-173 -157l-79 62l171 156q-106 72 -210 105l20 84q140 -46 259 -120l167 154l82 -66q-106 -95 -165 -146q206 -156 323.5 -388t117.5 -507 q0 -149 -40.5 -270.5t-111.5 -200t-165 -121.5t-202 -45q-230 -5 -371 143.5t-141 385.5zM257 512q0 -91 22.5 -171.5t66 -145t115.5 -102t164 -37.5q83 0 151.5 44t110.5 115t64.5 154.5t23.5 169.5q0 108 -6 147q-28 100 -124 181t-231 81q-175 0 -266 -116.5t-91 -319.5z " />
<glyph unicode="&#xf1;" horiz-adv-x="1396" d="M133 1021v51l237 61l37 -19v-138q72 59 198 110.5t224 55.5q188 5 265 -102.5t77 -376.5v-578l163 -17v-68h-461v68l154 17v560q0 217 -57 304t-205 82q-76 -3 -170 -37.5t-170 -86.5v-822l158 -17v-68h-446v68l143 18v882zM339 1498q42 69 115 116.5t150 47.5 q36 0 68 -15.5t56.5 -38t48 -44.5t50.5 -37.5t55 -15.5q95 0 192 107l41 -59q-40 -69 -112.5 -117t-150.5 -48q-43 0 -83.5 24t-66 52t-60.5 52t-69 24q-99 0 -191 -107z" />
<glyph unicode="&#xf2;" horiz-adv-x="1231" d="M104 581q2 129 45.5 237t116 180t167.5 112.5t201 41.5q102 1 185.5 -29.5t140 -84.5t95 -128t56 -157.5t16.5 -175.5q-2 -263 -149.5 -431.5t-369.5 -169.5q-107 0 -193.5 33t-144 89.5t-96 134.5t-55 165t-15.5 183zM258 590q0 -108 20.5 -200.5t62.5 -166t112 -116 t162 -44.5q173 -4 265.5 126.5t92.5 378.5q0 105 -19.5 192.5t-60 157.5t-109 110.5t-160.5 41.5q-172 3 -269 -125t-97 -355zM350 1661l106 109l313 -384l-43 -43q-302 205 -376 318z" />
<glyph unicode="&#xf3;" horiz-adv-x="1231" d="M104 581q2 129 45.5 237t116 180t167.5 112.5t201 41.5q102 1 185.5 -29.5t140 -84.5t95 -128t56 -157.5t16.5 -175.5q-2 -263 -149.5 -431.5t-369.5 -169.5q-107 0 -193.5 33t-144 89.5t-96 134.5t-55 165t-15.5 183zM258 590q0 -108 20.5 -200.5t62.5 -166t112 -116 t162 -44.5q173 -4 265.5 126.5t92.5 378.5q0 105 -19.5 192.5t-60 157.5t-109 110.5t-160.5 41.5q-172 3 -269 -125t-97 -355zM509 1386l313 384l107 -109q-73 -112 -377 -318z" />
<glyph unicode="&#xf4;" horiz-adv-x="1231" d="M104 581q2 129 45.5 237t116 180t167.5 112.5t201 41.5q102 1 185.5 -29.5t140 -84.5t95 -128t56 -157.5t16.5 -175.5q-2 -263 -149.5 -431.5t-369.5 -169.5q-107 0 -193.5 33t-144 89.5t-96 134.5t-55 165t-15.5 183zM258 590q0 -108 20.5 -200.5t62.5 -166t112 -116 t162 -44.5q173 -4 265.5 126.5t92.5 378.5q0 105 -19.5 192.5t-60 157.5t-109 110.5t-160.5 41.5q-172 3 -269 -125t-97 -355zM276 1373l281 399h142l273 -398l-67 -37l-277 306l-291 -306z" />
<glyph unicode="&#xf5;" horiz-adv-x="1231" d="M104 581q2 129 45.5 237t116 180t167.5 112.5t201 41.5q102 1 185.5 -29.5t140 -84.5t95 -128t56 -157.5t16.5 -175.5q-2 -263 -149.5 -431.5t-369.5 -169.5q-107 0 -193.5 33t-144 89.5t-96 134.5t-55 165t-15.5 183zM231 1498q42 69 115 116.5t150 47.5q36 0 68 -15.5 t56.5 -38t48 -44.5t50.5 -37.5t55 -15.5q95 0 192 107l41 -59q-40 -69 -112.5 -117t-150.5 -48q-43 0 -83.5 24t-66 52t-60.5 52t-69 24q-99 0 -191 -107zM258 590q0 -108 20.5 -200.5t62.5 -166t112 -116t162 -44.5q173 -4 265.5 126.5t92.5 378.5q0 105 -19.5 192.5 t-60 157.5t-109 110.5t-160.5 41.5q-172 3 -269 -125t-97 -355z" />
<glyph unicode="&#xf6;" horiz-adv-x="1231" d="M104 581q2 129 45.5 237t116 180t167.5 112.5t201 41.5q102 1 185.5 -29.5t140 -84.5t95 -128t56 -157.5t16.5 -175.5q-2 -263 -149.5 -431.5t-369.5 -169.5q-107 0 -193.5 33t-144 89.5t-96 134.5t-55 165t-15.5 183zM258 590q0 -108 20.5 -200.5t62.5 -166t112 -116 t162 -44.5q173 -4 265.5 126.5t92.5 378.5q0 105 -19.5 192.5t-60 157.5t-109 110.5t-160.5 41.5q-172 3 -269 -125t-97 -355zM290 1518q0 45 36 78t80 33q49 0 74 -26.5t25 -68.5q0 -48 -36 -78.5t-82 -30.5q-40 0 -68.5 25t-28.5 68zM745 1518q0 45 36 78t80 33 q49 0 74 -26.5t25 -68.5q0 -48 -36 -78.5t-82 -30.5q-40 0 -68.5 25t-28.5 68z" />
<glyph unicode="&#xf7;" horiz-adv-x="1269" d="M172 743v111h925v-111h-925zM528 1175q0 46 37 79t81 33q48 0 73.5 -27t25.5 -68q0 -48 -36 -80t-82 -32q-40 0 -69.5 26.5t-29.5 68.5zM545 415q7 41 42 66t72 20q43 -5 59.5 -32.5t9.5 -64.5q-5 -43 -40 -67t-75 -19q-34 5 -54 32t-14 65z" />
<glyph unicode="&#xf8;" horiz-adv-x="1231" d="M104 581q2 129 45.5 237t116 180t167.5 112.5t201 41.5q84 0 150 -19l57 167l66 -25l-56 -166q139 -63 208 -206.5t68 -325.5q-2 -263 -149.5 -431.5t-369.5 -169.5q-72 0 -139 16l-62 -184l-70 26l62 181q-103 43 -171 132.5t-97 198t-27 235.5zM258 590 q0 -160 44.5 -284t134.5 -188l313 927q-58 24 -126 25q-172 3 -269 -125t-97 -355zM502 84q51 -20 113 -21q173 -4 265.5 126.5t92.5 378.5q0 148 -39.5 263.5t-120.5 177.5z" />
<glyph unicode="&#xf9;" horiz-adv-x="1292" d="M111 1037v60l215 42l30 -18v-689q0 -98 9 -158.5t35 -106.5t73 -65t122 -19q102 0 193.5 46t139.5 90v788l-125 22v64l239 45l29 -17v-1050h126v-61q-29 -13 -78 -23.5t-85 -10.5q-92 0 -92 76v90q-198 -163 -404 -163q-66 0 -116.5 13.5t-84.5 32.5t-57.5 57.5t-36 71.5 t-19 91.5t-8 100.5t-2.5 115v556zM340 1661l107 109l312 -384l-42 -43q-302 203 -377 318z" />
<glyph unicode="&#xfa;" horiz-adv-x="1292" d="M111 1037v60l215 42l30 -18v-689q0 -98 9 -158.5t35 -106.5t73 -65t122 -19q102 0 193.5 46t139.5 90v788l-125 22v64l239 45l29 -17v-1050h126v-61q-29 -13 -78 -23.5t-85 -10.5q-92 0 -92 76v90q-198 -163 -404 -163q-66 0 -116.5 13.5t-84.5 32.5t-57.5 57.5t-36 71.5 t-19 91.5t-8 100.5t-2.5 115v556zM500 1386l312 384l107 -109q-72 -113 -377 -318z" />
<glyph unicode="&#xfb;" horiz-adv-x="1292" d="M111 1037v60l215 42l30 -18v-689q0 -98 9 -158.5t35 -106.5t73 -65t122 -19q102 0 193.5 46t139.5 90v788l-125 22v64l239 45l29 -17v-1050h126v-61q-29 -13 -78 -23.5t-85 -10.5q-92 0 -92 76v90q-198 -163 -404 -163q-66 0 -116.5 13.5t-84.5 32.5t-57.5 57.5t-36 71.5 t-19 91.5t-8 100.5t-2.5 115v556zM267 1373l281 399h142l273 -398l-68 -37l-277 306l-290 -306z" />
<glyph unicode="&#xfc;" horiz-adv-x="1292" d="M111 1037v60l215 42l30 -18v-689q0 -98 9 -158.5t35 -106.5t73 -65t122 -19q102 0 193.5 46t139.5 90v788l-125 22v64l239 45l29 -17v-1050h126v-61q-29 -13 -78 -23.5t-85 -10.5q-92 0 -92 76v90q-198 -163 -404 -163q-66 0 -116.5 13.5t-84.5 32.5t-57.5 57.5t-36 71.5 t-19 91.5t-8 100.5t-2.5 115v556zM280 1518q0 45 36 78t80 33q49 0 74 -26.5t25 -68.5q0 -48 -35.5 -78.5t-81.5 -30.5q-40 0 -69 25.5t-29 67.5zM735 1518q0 45 36 78t80 33q49 0 74 -26.5t25 -68.5q0 -48 -35.5 -78.5t-81.5 -30.5q-40 0 -69 25.5t-29 67.5z" />
<glyph unicode="&#xfd;" horiz-adv-x="1150" d="M2 1037v82h450v-82l-165 -16l255 -699l91 -255l68 238l220 718l-164 14v82h414v-82l-124 -14q-307 -920 -359 -1055q-85 -216 -169.5 -330t-202.5 -143q-39 -10 -87 -10q-61 0 -79 15v123q35 -11 80 -13q41 -1 82.5 14.5t88.5 53t92.5 114t80.5 183.5h-27l-421 1047z M494 1386l313 384l107 -109q-73 -112 -377 -318z" />
<glyph unicode="&#xfe;" horiz-adv-x="1269" d="M49 1525v68l280 30l35 -17v-586q167 133 353 133q70 0 133.5 -18.5t121.5 -60t99.5 -103.5t66.5 -156t25 -210q0 -175 -70.5 -319t-200.5 -229t-295 -85q-124 0 -238 26l4 -99v-325l230 -18v-67h-528v67l154 20q0 68 0.5 247t0.5 227v1450zM364 134q15 -39 86 -59 t165 -20q78 0 148.5 32.5t128 94t92 162t35.5 226.5q1 127 -28 222t-81 149t-115 79.5t-136 25.5q-83 0 -164 -30.5t-131 -77.5v-804z" />
<glyph unicode="&#xff;" horiz-adv-x="1150" d="M2 1037v82h450v-82l-165 -16l255 -699l91 -255l68 238l220 718l-164 14v82h414v-82l-124 -14q-307 -920 -359 -1055q-85 -216 -169.5 -330t-202.5 -143q-39 -10 -87 -10q-61 0 -79 15v123q35 -11 80 -13q41 -1 82.5 14.5t88.5 53t92.5 114t80.5 183.5h-27l-421 1047z M275 1518q0 45 36 78t80 33q49 0 74 -26.5t25 -68.5q0 -48 -36 -78.5t-82 -30.5q-40 0 -68.5 25t-28.5 68zM730 1518q0 45 36 78t80 33q49 0 74 -26.5t25 -68.5q0 -48 -36 -78.5t-82 -30.5q-40 0 -68.5 25t-28.5 68z" />
<glyph unicode="&#x152;" horiz-adv-x="2079" d="M90 759q4 186 61 338.5t153.5 253.5t224 156.5t272.5 58.5q83 1 163 -13h946l29 -286h-85l-46 193l-593 12v-605l405 7l27 160h79v-424h-79l-27 168l-405 6v-700l632 16l91 233l74 -18l-45 -315h-995q-95 -27 -201 -28q-204 -3 -361 96.5t-240.5 280t-79.5 410.5z M252 760q0 -199 64 -358.5t187 -253.5t285 -94q172 0 280 114v1192q-115 123 -282 123q-241 0 -387.5 -194.5t-146.5 -528.5z" />
<glyph unicode="&#x153;" horiz-adv-x="2061" d="M104 581q2 129 45.5 237t116 180t167.5 112.5t201 41.5q172 1 284 -81.5t165 -224.5q68 140 195.5 221.5t290.5 84.5q173 3 276.5 -107.5t107.5 -308.5q2 -67 -9 -162h-778v-11q-2 -121 29.5 -215.5t87.5 -151.5t129 -86.5t158 -29.5q91 0 186 23.5t139 53.5l31 -69 q-57 -51 -174 -81.5t-235 -30.5q-168 0 -283.5 79.5t-169.5 225.5q-65 -142 -185 -223t-271 -82q-107 0 -193.5 33t-144 89.5t-96 134.5t-55 165t-15.5 183zM258 590q0 -108 20.5 -200.5t62.5 -166t112 -116t162 -44.5q173 -4 265.5 126.5t92.5 378.5q0 105 -19.5 192.5 t-60 157.5t-109 110.5t-160.5 41.5q-172 3 -269 -125t-97 -355zM1170 664h631q19 292 -135 374q-56 31 -136 31q-142 0 -241.5 -105t-118.5 -300z" />
<glyph unicode="&#x178;" horiz-adv-x="1352" d="M12 1477v76h460v-77l-168 -14l351 -633l53 -107l49 108l320 631l-171 16v76h431v-76l-135 -22l-430 -818v-545l211 -25v-67h-561v67l203 25v548l-491 822zM365 1785q0 46 36.5 79t80.5 33q49 0 74 -27t25 -68q0 -48 -35.5 -80t-81.5 -32q-40 0 -69.5 26t-29.5 69z M822 1784q0 46 36.5 79.5t80.5 33.5q49 0 74.5 -27t25.5 -69q0 -48 -36 -80t-82 -32q-40 0 -69.5 26.5t-29.5 68.5z" />
<glyph unicode="&#x2c6;" horiz-adv-x="1063" d="M180 1373l280 399h143l273 -398l-68 -37l-277 306l-290 -306z" />
<glyph unicode="&#x2dc;" horiz-adv-x="886" d="M55 1498q41 69 114 116.5t151 47.5q36 0 68 -15.5t56.5 -38t48 -44.5t50.5 -37.5t55 -15.5q97 0 191 107l42 -59q-40 -69 -112.5 -117t-150.5 -48q-43 0 -83.5 24t-66 52t-60.5 52t-69 24q-98 0 -192 -107z" />
<glyph unicode="&#x2000;" horiz-adv-x="960" />
<glyph unicode="&#x2001;" horiz-adv-x="1920" />
<glyph unicode="&#x2002;" horiz-adv-x="960" />
<glyph unicode="&#x2003;" horiz-adv-x="1920" />
<glyph unicode="&#x2004;" horiz-adv-x="640" />
<glyph unicode="&#x2005;" horiz-adv-x="480" />
<glyph unicode="&#x2006;" horiz-adv-x="320" />
<glyph unicode="&#x2007;" horiz-adv-x="320" />
<glyph unicode="&#x2008;" horiz-adv-x="240" />
<glyph unicode="&#x2009;" horiz-adv-x="384" />
<glyph unicode="&#x200a;" horiz-adv-x="106" />
<glyph unicode="&#x2010;" horiz-adv-x="1229" d="M172 743v111h885v-111h-885z" />
<glyph unicode="&#x2011;" horiz-adv-x="1229" d="M172 743v111h885v-111h-885z" />
<glyph unicode="&#x2012;" horiz-adv-x="1229" d="M172 743v111h885v-111h-885z" />
<glyph unicode="&#x2013;" horiz-adv-x="1407" d="M172 743v111h1063v-111h-1063z" />
<glyph unicode="&#x2014;" horiz-adv-x="2392" d="M172 743v111h2048v-111h-2048z" />
<glyph unicode="&#x2018;" horiz-adv-x="774" d="M210 1261q-1 81 26.5 156t73 130.5t99 96t109.5 63.5l36 -43v-25q-76 -26 -140 -118.5t-64 -200.5q0 -88 44.5 -152.5t102.5 -73.5v-36l-80 -105q-68 16 -117 69.5t-69 115t-21 123.5z" />
<glyph unicode="&#x2019;" horiz-adv-x="774" d="M179 1009v25q75 26 139 118.5t64 200.5q0 88 -44 152t-103 73v37l80 104q68 -16 117 -69.5t69 -115t21 -123.5q1 -81 -26.5 -155.5t-73 -130.5t-99 -96.5t-109.5 -63.5z" />
<glyph unicode="&#x201a;" horiz-adv-x="752" d="M179 -465q75 26 139 118.5t64 200.5q0 89 -44 153t-103 73v36l80 105q68 -16 117 -69.5t69 -115t21 -123.5q1 -81 -26 -156t-73 -130.5t-99.5 -96t-109.5 -63.5l-35 43v25z" />
<glyph unicode="&#x201c;" horiz-adv-x="1303" d="M210 1261q-1 81 26.5 156t73 130.5t99 96t109.5 63.5l36 -43v-25q-76 -26 -140 -118.5t-64 -200.5q0 -88 44.5 -152.5t102.5 -73.5v-36l-80 -105q-68 16 -117 69.5t-69 115t-21 123.5zM738 1261q-1 81 26.5 156t73.5 130.5t99.5 96t109.5 63.5l35 -43v-25 q-75 -26 -139 -118.5t-64 -200.5q0 -89 44 -153t103 -73v-36l-80 -105q-68 16 -117 69.5t-69.5 115t-21.5 123.5z" />
<glyph unicode="&#x201d;" horiz-adv-x="1325" d="M220 1009v25q76 26 140 118.5t64 200.5q0 88 -44.5 152t-102.5 73v37l80 104q68 -16 117 -69.5t69 -115t21 -123.5q1 -156 -92 -276t-216 -170zM771 1009v25q76 26 140 118.5t64 200.5q0 88 -44.5 152t-103.5 73v37l81 104q68 -16 117 -69.5t69 -115t21 -123.5 q1 -156 -92.5 -276t-216.5 -170z" />
<glyph unicode="&#x201e;" horiz-adv-x="1308" d="M249 -462q76 27 140 119.5t64 199.5q0 88 -44.5 152.5t-102.5 73.5v37l80 104q68 -16 117 -69.5t69 -115t21 -123.5q1 -81 -26.5 -155.5t-73 -130.5t-99 -96.5t-109.5 -63.5l-36 44v24zM800 -462q76 27 140 119.5t64 199.5q0 88 -44.5 152.5t-103.5 73.5v37l81 104 q68 -16 117 -69.5t69 -115t21 -123.5q1 -156 -92.5 -276t-216.5 -170l-35 44v24z" />
<glyph unicode="&#x2022;" horiz-adv-x="841" d="M258 740q5 71 55 120.5t115 49.5q66 0 112.5 -50t42.5 -120q-5 -70 -55 -120t-115 -50q-66 0 -112.5 51.5t-42.5 118.5z" />
<glyph unicode="&#x2026;" horiz-adv-x="2119" d="M215 73q0 46 36.5 79t80.5 33q49 0 74.5 -27t25.5 -68q0 -48 -36 -80t-82 -32q-40 0 -69.5 26.5t-29.5 68.5zM921 73q0 46 37 79t81 33q48 0 73.5 -27t25.5 -68q0 -48 -36 -80t-82 -32q-40 0 -69.5 26.5t-29.5 68.5zM1628 73q0 46 36.5 79t80.5 33q48 0 73.5 -27 t25.5 -68q0 -48 -35.5 -80t-81.5 -32q-40 0 -69.5 26.5t-29.5 68.5z" />
<glyph unicode="&#x202f;" horiz-adv-x="384" />
<glyph unicode="&#x2039;" horiz-adv-x="1189" d="M245 550v126l648 399l41 -67l-550 -392l550 -382l-41 -71z" />
<glyph unicode="&#x203a;" horiz-adv-x="1189" d="M256 230l549 391l-549 383l40 71l648 -387v-126l-648 -399z" />
<glyph unicode="&#x205f;" horiz-adv-x="480" />
<glyph unicode="&#x20ac;" horiz-adv-x="1390" d="M-39 569v96h196q-1 19 -1 59q0 106 15 200h-180v97h200q67 258 244 400t424 142q39 0 76.5 -2.5t73.5 -8t62 -10t60.5 -13.5t50 -13t48 -14t38.5 -12l-14 -261h-67l-38 167q-50 38 -140 58t-195 20q-182 0 -309.5 -116.5t-173.5 -336.5h618v-97h-633q-8 -77 -8 -152 q0 -54 3 -107h608v-96h-598q16 -116 52.5 -208t95 -162.5t146.5 -108t199 -36.5q238 2 349 98q4 17 17 83t19 87q10 0 35.5 -0.5t35.5 -0.5v-258q-26 -4 -78 -20t-102.5 -31t-138 -27.5t-183.5 -12.5q-255 0 -411.5 160.5t-191.5 436.5h-204z" />
<glyph unicode="&#x2122;" horiz-adv-x="2180" d="M167 1322l17 231h676v-230l-51 -5l-25 152l-199 10v-628l142 -14v-61h-408v61l131 14v626l-192 -10l-38 -145zM964 777v61l111 15l33 624l-110 9v67h301l188 -505l35 -124l208 629h268v-67l-104 -9l56 -625l100 -14v-61h-319v61l96 14l-31 411l-9 217l-30 -97l-210 -614 h-85l-218 562l-57 151l-6 -173l-20 -456l103 -15v-61h-300z" />
<glyph unicode="&#x25fc;" horiz-adv-x="1120" d="M0 0v1120h1120v-1120h-1120z" />
<glyph unicode="&#xfb01;" horiz-adv-x="1520" d="M97 996v60l226 44v105q0 107 37.5 199.5t96 151.5t128 92.5t136.5 33.5q99 0 143 -17v-129q-50 29 -172 29q-47 0 -83 -12t-70 -43t-52.5 -94t-18.5 -155v-161h327v-104h-327v-912l241 -16v-68h-590v68l204 17v911h-226zM978 0v68l165 16v887l-144 50v51l244 61l38 -19 v-1029l167 -17v-68h-470zM1078 1512q0 48 37 81.5t81 33.5q49 0 74.5 -27.5t25.5 -70.5q0 -50 -36 -82t-82 -32q-41 0 -70.5 27t-29.5 70z" />
<glyph unicode="&#xfb02;" horiz-adv-x="1535" d="M97 996v60l226 44v105q0 107 37.5 199.5t96 151.5t128 92.5t136.5 33.5q99 0 143 -17v-129q-50 29 -172 29q-47 0 -83 -12t-70 -43t-52.5 -94t-18.5 -155v-161h327v-104h-327v-912l241 -16v-68h-590v68l204 17v911h-226zM974 0v68l167 17v1411l-163 24v69l273 34l35 -21 v-1518l175 -16v-68h-487z" />
<glyph unicode="&#xfb03;" horiz-adv-x="2357" d="M97 996v60l226 44v105q0 107 37.5 199.5t96 151.5t128 92.5t136.5 33.5q99 0 143 -17v-129q-50 29 -172 29q-47 0 -83 -12t-70 -43t-52.5 -94t-18.5 -155v-161h327v-104h-327v-912l241 -16v-68h-590v68l204 17v911h-226zM935 996v60l225 44v105q0 107 37.5 199.5 t96 151.5t128 92.5t136.5 33.5q99 0 143 -17v-129q-48 29 -172 29q-47 0 -83 -12t-70 -43t-52.5 -94t-18.5 -155v-161h328v-104h-328v-912l242 -16v-68h-591v68l204 17v911h-225zM1815 0v68l165 16v887l-144 50v51l245 61l38 -19v-1029l166 -17v-68h-470zM1916 1512 q0 48 36.5 81.5t80.5 33.5q49 0 74.5 -27.5t25.5 -70.5q0 -50 -36 -82t-82 -32q-40 0 -69.5 27t-29.5 70z" />
<glyph unicode="&#xfb04;" horiz-adv-x="2373" d="M97 996v60l226 44v105q0 107 37.5 199.5t96 151.5t128 92.5t136.5 33.5q99 0 143 -17v-129q-50 29 -172 29q-47 0 -83 -12t-70 -43t-52.5 -94t-18.5 -155v-161h327v-104h-327v-912l241 -16v-68h-590v68l204 17v911h-226zM935 996v60l225 44v105q0 107 37.5 199.5 t96 151.5t128 92.5t136.5 33.5q99 0 143 -17v-129q-48 29 -172 29q-47 0 -83 -12t-70 -43t-52.5 -94t-18.5 -155v-161h328v-104h-328v-912l242 -16v-68h-591v68l204 17v911h-225zM1812 0v68l166 17v1411l-163 24v69l273 34l35 -21v-1518l175 -16v-68h-486z" />
</font>
</defs>
</svg>
